<?xml version="1.0" standalone="no"?>
<!DOCTYPE svg PUBLIC "-//W3C//DTD SVG 1.1//EN" "http://www.w3.org/Graphics/SVG/1.1/DTD/svg11.dtd" >
<svg>
<metadata>
Created by FontForge 20110222 at Fri Sep 13 03:35:35 2013
 By Orthosie Webhosting
========================================
 Copyright (c) Boutros International, 2005. All rights reserved.
      Convert And Modified By Mojtaba Kia  (c) 2007 - 2008
========================================
</metadata>
<defs>
<font id="Mj_DinarTwoLight" horiz-adv-x="0" >
  <font-face 
    font-family="Mj_Dinar Two Light"
    font-weight="300"
    font-stretch="normal"
    units-per-em="2048"
    panose-1="0 0 4 0 0 0 0 0 0 0"
    ascent="1638"
    descent="-410"
    bbox="-211 -864 2692 1956"
    underline-thickness="100"
    underline-position="-850"
    unicode-range="U+0020-FEFC"
  />
<missing-glyph horiz-adv-x="1024" 
d="M897 0v1536h-768v-1536h768zM256 1409h512v-1280h-512v1280z" />
    <glyph glyph-name=".notdef" unicode="&#x652;&#x64d;" horiz-adv-x="1024" 
d="M897 0v1536h-768v-1536h768zM256 1409h512v-1280h-512v1280z" />
    <glyph glyph-name="uniFC60" unicode="&#x651;&#x64e;" horiz-adv-x="1" arabic-form="isolated" 
d="M476 1751v-87q0 -44 -25 -74q-32 -40 -94 -40q-63 4 -78 34q-14 -27 -84 -27q-62 -5 -94 35q-25 32 -25 72v87h98v-71q6 -46 32 -44q19 1 19 72v43h99v-43q8 -72 38 -72q22 0 15 46l2 69h97zM460 1870l2 -77h-366l2 77h362z" />
    <glyph glyph-name="uniFC61" unicode="&#x651;&#x64f;" arabic-form="isolated" 
d="M266 1828q0 -57 47 -57q45 0 45 57q0 55 -45 55q-47 0 -47 -55zM401 1729l-4 -8l-174 -123l-34 62l66 46q-12 2 -39 29q-40 40 -40 91q0 126 135 126t135 -126q0 -51 -36 -87zM495 1572v-88q0 -43 -25 -74q-33 -38 -93 -38q-64 2 -79 32q-14 -26 -84 -26q-62 -5 -94 35
q-25 31 -25 71v88h98v-71q6 -46 32 -45q19 2 19 73v43h99v-44q8 -72 38 -72q22 0 15 47l2 69h97z" />
    <glyph glyph-name="uniE818" unicode="&#x651;&#x64b;" 
d="M457 1788l-2 -88l-360 3v85h362zM461 1918l2 -87l-368 2v90zM477 1656v-87q0 -42 -25 -73q-33 -39 -93 -39q-64 3 -79 32q-14 -26 -84 -26q-62 -5 -94 35q-25 30 -25 71v87h98v-70q6 -46 32 -45q19 2 19 73v42h99v-42q8 -73 38 -73q22 0 15 47l2 68h97z" />
    <glyph glyph-name="uniFC5E" unicode="&#x651;&#x64c;" arabic-form="isolated" 
d="M534 1539v-88q0 -43 -24 -73q-34 -39 -93 -39q-65 2 -80 33q-14 -27 -83 -27q-63 -5 -95 35q-24 30 -24 71v88h97v-71q7 -46 33 -44q18 1 18 72v43h100v-43q7 -72 37 -72q22 0 15 46l3 69h96zM440 1857q-46 0 -46 -54q0 -56 46 -56q47 0 47 56q0 54 -47 54zM257 1857
q-46 0 -46 -54q0 -56 46 -56t46 56q0 54 -46 54zM351 1704q4 9 0 6l-7 -7l-3 -7l-174 -124l-32 63l65 46q-13 2 -42 32q-37 37 -37 88q0 125 134 125q64 0 92 -23q28 23 92 23q136 0 136 -125q0 -51 -38 -88l-187 -141l-31 63l64 46q-12 2 -39 29q-1 2 7 -6z" />
    <glyph glyph-name="uniFC62" unicode="&#x651;&#x650;" horiz-adv-x="1" arabic-form="isolated" 
d="M494 1880v-89q0 -43 -25 -73q-32 -40 -94 -40q-63 4 -78 34q-14 -27 -84 -27q-62 -5 -94 36q-25 31 -25 70v89h98v-72q6 -46 32 -44q19 1 19 72v44h99v-44q8 -72 38 -72q22 0 15 46l2 70h97zM479 1651l2 -77h-365l3 77h360z" />
    <glyph glyph-name="uniFC5F" unicode="&#x651;&#x64d;" arabic-form="isolated" 
d="M487 1915v-89q0 -42 -25 -72q-32 -40 -94 -40q-63 4 -78 33q-14 -27 -84 -27q-62 -5 -94 36q-25 31 -25 70v89h98v-71q6 -47 32 -44q19 0 19 72v43h99v-43q8 -72 38 -72q22 0 15 46l2 69h97zM459 1564l2 -88l-364 3v85h362zM458 1688v-88l-357 -2l-6 90h363z" />
    <glyph glyph-name="uniFEF5" unicode="&#xfedf;&#xfe82;" horiz-adv-x="1017" arabic-form="isolated" 
d="M934 1323l-158 -39l35 -258v-707q0 -99 -45 -153l-487 893h-166l147 -191l424 -759q-34 -11 -63 -11h-414l-47 -98h516q119 0 190 81q68 77 68 202v1040zM465 1360q-28 -80 -90 -80q-47 0 -115 55q-89 74 -162 74q-102 0 -143 -139l53 -25q28 82 88 82q49 0 115 -57
q85 -76 160 -76q93 0 145 141z" />
    <glyph glyph-name="uniFEF6" unicode="&#xfee0;&#xfe82;" horiz-adv-x="1183" arabic-form="final" 
d="M1202 98h-78q-190 0 -190 219v1018l-158 -37l35 -258v-721q0 -98 -43 -153l-489 893h-166l147 -191l424 -762q-24 -8 -61 -8h-416l-47 -98h516q126 0 197 86q70 -86 200 -86h129v98zM465 1360q-28 -80 -90 -80q-47 0 -115 55q-89 74 -162 74q-102 0 -143 -139l53 -25
q28 82 88 82q49 0 115 -57q85 -76 160 -76q93 0 145 141z" />
    <glyph glyph-name="uniFEF7" unicode="&#xfedf;&#xfe84;" horiz-adv-x="1017" arabic-form="isolated" 
d="M934 1323l-158 -39l35 -258v-707q0 -99 -45 -153l-487 893h-166l147 -191l424 -759q-34 -11 -63 -11h-414l-47 -98h516q119 0 190 81q68 77 68 202v1040zM344 1249l-53 -8h-115v25q0 125 98 125q35 0 70 -29l23 33q-52 51 -117 51q-137 0 -137 -170v-35h-70v-53h373z" />
    <glyph glyph-name="uniFEF8" unicode="&#xfee0;&#xfe84;" horiz-adv-x="1183" arabic-form="final" 
d="M1202 98h-78q-190 0 -190 219v1018l-158 -37l35 -258v-721q0 -98 -43 -153l-489 893h-166l147 -191l424 -762q-25 -8 -61 -8h-416l-47 -98h516q126 0 196 86q71 -86 201 -86h129v98zM344 1249l-53 -8h-115v25q0 125 98 125q35 0 70 -29l23 33q-52 51 -117 51
q-137 0 -137 -170v-35h-70v-53h373z" />
    <glyph glyph-name="uniFEF9" unicode="&#xfedf;&#xfe88;" horiz-adv-x="1017" arabic-form="isolated" 
d="M933 1323l-157 -39l34 -258v-707q0 -99 -45 -153l-487 893h-166l147 -191l424 -759q-34 -11 -63 -11h-414l-47 -98h516q119 0 190 81q68 77 68 202v1040zM585 -337l-51 -7h-115v23q-3 123 99 123q32 0 69 -25l23 31q-52 51 -119 51q-137 0 -137 -172v-31h-70v-55h373z
" />
    <glyph glyph-name="uniFEFA" unicode="&#xfee0;&#xfe88;" horiz-adv-x="1183" arabic-form="final" 
d="M1202 98h-78q-191 0 -191 219v1018l-157 -37l34 -258v-721q0 -98 -43 -153l-489 893h-166l147 -191l424 -762q-24 -8 -61 -8h-416l-47 -98h516q126 0 197 86q70 -86 201 -86h129v98zM585 -337l-51 -7h-115v23q-3 123 99 123q32 0 69 -25l23 31q-52 51 -119 51
q-137 0 -137 -172v-31h-70v-55h373z" />
    <glyph glyph-name="uniFEFB" unicode="&#xfedf;&#xfe8e;" horiz-adv-x="1017" arabic-form="isolated" 
d="M933 1323l-157 -39l34 -258v-707q0 -99 -45 -153l-487 893h-166l147 -191l424 -759q-34 -11 -63 -11h-414l-47 -98h516q119 0 190 81q68 77 68 202v1040z" />
    <glyph glyph-name="uniFEFC" unicode="&#xfee0;&#xfe8e;" horiz-adv-x="1183" arabic-form="final" 
d="M1202 98h-78q-191 0 -191 219v1018l-157 -37l34 -258v-721q0 -98 -43 -153l-489 893h-166l147 -191l424 -762q-24 -8 -61 -8h-416l-47 -98h516q126 0 197 86q70 -86 201 -86h129v98z" />
    <glyph glyph-name="uniFDF2" unicode="&#xfedf;&#xfee0;&#xfeea;" horiz-adv-x="2273" arabic-form="isolated" 
d="M1091 98h-88q-191 0 -191 219v715l-161 -39l10 -112h-109q-197 0 -319 -119q-121 -121 -121 -316q0 -399 311 -399q175 6 277 80q21 -43 80 -80q78 -47 172 -47h139v98zM685 190q-113 -38 -213 -38q-228 0 -231 329q0 142 88 236q87 93 209 96q37 2 137 2zM1765 98h-82
q-187 0 -187 219v1006l-157 -39l33 -258v-707q0 -221 -191 -221h-166v-98h223q122 0 193 86q74 -86 205 -86h129v98zM2178 1323l-153 -39l33 -252v-713q0 -221 -193 -221h-154v-98h203q264 0 264 283v1040zM1474 1593q29 -67 29 -92q0 -31 -31 -24q-64 9 -64 57q1 8 2 17
l7 48q3 40 -19 62l-18 -31q-7 -11 -13 -16q13 -52 13 -82q4 -74 -54 -62q-47 7 -47 43l17 95q0 32 -21 53l-30 -47q4 -10 5 -37l-1 -68q-6 -68 34 -90q17 -8 35 -8q40 0 76 45q25 -59 80 -47q68 15 68 113q0 65 -27 151z" />
    <glyph glyph-name="copyright" unicode="&#x652;&#x64e;" horiz-adv-x="1816" 
d="M738 1956h1l2 -2v-209h1q96 68 234 68q176 0 345 -106q43 -27 97 -73q54 -52 70 -72q18 -20 18 -22l-1 -1q-1 0 -75 74q-59 53 -97 76q-47 31 -97 53q-127 56 -253 56q-148 0 -242 -75v-109l1 -420q33 -45 85 -104q83 -89 165 -164l126 -117v0q16 4 30 4q34 0 88 -29
q29 -13 44 -13q16 0 23 14v6q0 37 -149 177q-98 93 -158 147q-49 43 -130 124q-63 67 -76 91q-23 35 -23 63q0 43 48 58q9 2 17 2q22 0 65 -22q22 -10 38 -10h4q26 0 70 40l81 74q8 2 55 7v0q3 0 4 -2q-1 -3 -24 -23l-107 -100q-37 -41 -37 -60q0 -3 3 -4h2q21 2 57 30
q20 16 117 107q49 8 56 8q3 -1 3 -2v-2q-3 -4 -126 -116q-58 -54 -58 -86v-1h1q12 5 36 8q56 32 75 90q4 14 7 14q8 7 38 15l5 1h1q3 0 3 -3q-14 -36 -14 -65v-8l2 -20v0q38 6 60 25q1 0 35 34q51 41 112 41q71 0 131 -59v0h-1q-38 33 -68 43q-27 9 -53 9h-1q-57 0 -98 -40
q-23 -26 -23 -61q0 -26 13 -52l2 -1q9 6 9 16q0 8 -14 15q-8 7 -8 23q0 13 4 13q34 13 41 13h1q7 0 7 -16q0 -65 -69 -100q-6 -2 -9 -2q-14 0 -20 55v9q0 24 9 46h-1q-10 -7 -31 -14q-20 -4 -27 -4v-1q9 -56 60 -128q26 -38 123 -144q90 -95 95 -102v-1q0 -6 -36 -6h-1
q-17 0 -31 19l-166 178q-47 52 -104 109q-39 38 -80 38q-14 0 -50 -9l-4 -1h-4q-7 0 -9 10v2q2 25 25 59l1 1v1q-30 -4 -51 -9q-12 -4 -19 -4q-9 0 -10 11v0q0 20 23 58l5 6v0q-18 -3 -34 -3q-42 0 -79 29q-12 7 -19 7q-13 0 -19 -17l-1 -8q0 -53 145 -190q43 -40 193 -178
q55 -50 118 -113q86 -87 86 -130q0 -26 -28 -38q-9 -3 -21 -3q-30 0 -89 33q-39 18 -64 18h-3q-6 0 -22 -3v0q57 -58 74 -83q62 -78 62 -149q0 -58 -40 -86q-18 -9 -35 -9q-37 0 -63 34q-3 5 -5 9v0q0 -9 -13 -47q-32 -82 -101 -119q-50 -27 -111 -27q-98 0 -159 76
q-22 32 -26 79q0 2 1 2q-3 16 -5 43h-1v639q0 1 -19 30q-82 133 -82 255q0 138 90 243l11 12v186q0 10 7 17q26 38 31 43zM1766 -297v-256l-1 -1h-50l-1 1v173h-103v-174h-1h-50v0v257v1h205zM1714 -322h-103v-32h103v32zM624 1478q0 -93 54 -183q10 -21 20 -35v421
q-74 -90 -74 -203zM1347 1664l1 -2v-2q-3 -10 -3 -22l1 -35q0 -33 -24 -33l-46 6q-4 0 -4 -7v-40q0 -21 -19 -28q-4 -2 -12 -2q-16 0 -16 4v3q3 11 3 17v0l-1 31q0 33 36 33l30 -1q7 1 7 7v41q0 18 16 26q18 4 31 4zM1536 -507v-47l-1 -1h-15v1v39h-20v-39l-1 -1h-15l-1 1
v39h-19v-39l-1 -1h-15v1v47v1h87zM1533 -297v-56v-1h-37l-1 -1v-25h38v0v-98v-1h-205l-1 1v181l1 1h205v-1zM1469 -322h-90v-32h90v32zM1469 -380h-90v-73h90v73zM1440 -506v-47l-1 -1h-63l-1 1v47h1h63h1zM1423 -514h-31v-32h31v32zM1365 -507v-6l-1 -1h-47v-32h47l1 -1v-6
l-1 -1h-63l-1 1v46l1 1h63zM1141 1353q-25 -37 -61 -55v-1h5q35 0 70 -27v0v1q-15 28 -15 64l2 18v0h-1zM1300 -297v-181v-1h-50l-1 1v98h-103v-98l-1 -1h-50l-1 1v181l1 1h205v-1zM1288 -547v-7l-1 -1h-11l-1 1v7h1h11h1zM1260 -547v-7v-1h-45v1v47v1h15l1 -1v-40h29v0z
M1249 -322h-103v-32h103v32zM1073 1264q4 0 4 -4q-4 -7 -4 -11v-4q0 -6 6 -46v-7q0 -18 -16 -24q-21 -5 -28 -5q-4 0 -5 3v1l2 9v1l-7 45v10q0 25 47 32h1zM1207 -507v-47l-1 -1h-15l-1 1v47l1 1h15zM1182 -507v-47v-1h-15l-1 1v21h-32v-21v-1h-15l-1 1v47l1 1h63v-1z
M1189 1144q4 0 4 -4q-3 -8 -3 -12v-1q0 -9 5 -46v-9q0 -23 -28 -27l-16 -1q-5 0 -5 3l2 8v4l-6 37q-1 6 -1 14v0q0 21 25 29q16 5 23 5zM1166 -515h-32v-9h32v9zM742 1111v-488v-83q0 -11 9 -51q9 -31 19 -45q27 -48 94 -72q31 -9 59 -9q80 0 137 66q18 24 28 48
q14 37 14 46l3 18q-7 21 -18 92q-10 43 -20 67q-2 4 -2 8v3q0 12 22 36q2 2 3 2h1q7 0 23 -46q6 -15 13 -58q6 -61 12 -74q14 -38 52 -38q22 0 36 11q8 8 8 22q0 59 -158 206q-19 18 -112 105q-47 43 -130 127q0 1 -25 27q-39 43 -68 80zM1107 -507v-47l-1 -1h-14l-1 1v39
h-20v-39l-1 -1h-15v1v39h-20v-39l-1 -1h-14l-1 1v47l1 1h86zM1041 -297v-24v-1h-77v-156l-1 -1h-50l-1 1v156h-76l-1 1v24l1 1h205v-1zM1011 -507v-7l-1 -1h-47v-32h32v14h-20v1v7v1h35l1 -1v-29l-1 -1h-63v1v47v1h63zM928 -492v-45v0h-50h-1v29l1 1h34v-1v-21h8v29h-50v-45
h58v-1v-7v-1h-66v1v61v1h66v-1zM904 -515h-18v-14h18v14zM849 -507v-7v-1h-48v-9h48v-1v-29v-1h-63l-1 1v47l1 1h63v-1zM809 -297v-181l-1 -1h-205l-1 1v24l1 1h154v131h-102l-1 1v24l1 1h153zM829 -533h-28v-14h28v14zM777 -507v-47l-1 -1h-62l-1 1v47l1 1h62zM761 -515
h-32v-9h32v9zM761 -533h-32v-14h32v14zM688 -532l16 -23h-19l-13 17l-15 -17h-16l16 24l-16 25h18l13 -18l15 18h19zM634 -507v-47l-1 -1h-15v1v47v1h15zM607 -506v-47l-1 -1h-63v1v7v0h47v32h-31l-1 1v7h1h47h1zM576 -297v-181l-1 -1h-205v1v181v1h205zM524 -322h-102v-131
h102v131zM533 -507v-47v0h-63h-1v47l1 1h63v-1zM517 -514h-31v-32h31v32zM458 -507v-47h-1h-15v0v40h-20v-40h-1h-15v0v40h-20v-40h-1h-14h-1v47l1 1h86zM895 247q7 0 16 -21q1 -6 60 -60q62 -49 68 -78l2 -13q0 -28 -38 -57l-67 -54q-4 -5 -4 -9q0 -9 26 -30q57 -50 68 -63
q16 -22 16 -47q0 -38 -50 -75l-5 -2q-10 0 -22 26q-19 24 -40 39q-54 40 -61 64q-5 11 -5 24v3q0 39 65 96q26 24 26 32v2q0 9 -29 32l-60 55q-20 23 -20 48q0 24 25 54q19 27 27 33zM333 -297v-256v-1h-50l-1 1v231h-65v-232h-51l-1 1v231h-63v-231l-1 -1h-50h-1v257l1 1
h282v-1z" />
    <glyph glyph-name="uniFD3F" unicode="&#x652;&#x64b;" horiz-adv-x="758" 
d="M689 444q-68 92 -130 151q-17 16 -42 34q-10 -13 -27 -26q15 -21 35 -43q61 -64 150 -130q-103 18 -190 18q-43 -172 -151 -306l-202 -250q11 90 22 206q1 41 -7 63q-13 37 -60 91q106 0 150 31q54 37 100 165q-77 0 -180 -18q91 68 150 130q19 21 35 43q-16 11 -27 26
q-25 -17 -43 -34q-63 -59 -131 -151q19 104 19 198v123q0 95 -19 198q70 -94 131 -151q15 -14 43 -34q12 15 27 27q-16 22 -35 43q-59 62 -150 130q107 -19 180 -19q-46 128 -100 165q-44 31 -150 31q47 55 60 92q8 21 7 63q-3 24 -22 206l202 -251q108 -133 151 -306
q83 0 190 19q-89 -66 -150 -130q-20 -20 -36 -43q16 -12 28 -27q25 18 42 34q62 60 130 151q-19 -107 -19 -198v-123q0 -90 19 -198zM507 704q0 37 -27 64t-64 27t-64 -27t-27 -64t26.5 -64t64.5 -27q37 0 64 27t27 64z" />
    <glyph glyph-name="afii57410" unicode="&#x622;" horiz-adv-x="393" arabic-form="isolated" 
d="M139 1309l29 -230v-1079h123v1079l18 244zM465 1569q-28 -80 -90 -80q-47 0 -115 55q-89 74 -162 74q-102 0 -143 -139l53 -25q28 82 88 82q49 0 115 -57q85 -76 160 -76q93 0 145 141z" />
    <glyph glyph-name="uniFE82" unicode="&#x622;" horiz-adv-x="587" arabic-form="final" 
d="M614 98h-127q-188 0 -188 221v1002l-156 -37l33 -244v-757q0 -283 262 -283h176v98zM465 1569q-28 -80 -90 -80q-47 0 -115 55q-89 74 -162 74q-102 0 -143 -139l53 -25q28 82 88 82q49 0 115 -57q85 -76 160 -76q93 0 145 141z" />
    <glyph glyph-name="afii57411" unicode="&#x623;" horiz-adv-x="393" arabic-form="isolated" 
d="M139 1309l29 -230v-1079h123v1079l18 244zM344 1464l-53 -8h-115v25q0 125 98 125q35 0 70 -29l23 33q-52 51 -117 51q-137 0 -137 -170v-35h-70v-53h373z" />
    <glyph glyph-name="uniFE84" unicode="&#x623;" horiz-adv-x="587" arabic-form="final" 
d="M614 98h-127q-188 0 -188 221v1002l-156 -37l33 -244v-757q0 -283 262 -283h176v98zM344 1464l-53 -8h-115v25q0 125 98 125q35 0 70 -29l23 33q-52 51 -117 51q-137 0 -137 -170v-35h-70v-53h373z" />
    <glyph glyph-name="afii57412" unicode="&#x624;" horiz-adv-x="897" arabic-form="isolated" 
d="M812 868h-260q-196 0 -319 -135q-121 -136 -121 -358q0 -395 311 -395q105 0 262 40q0 -308 -290 -415l32 -55q385 108 385 528v790zM685 123q-113 -39 -213 -39q-231 0 -231 332q0 387 297 387h147v-680zM659 1079l-84 -10h-205v53q0 221 178 221q62 0 113 -38l2 -5
l22 35l-2 2q-76 74 -176 74q-219 0 -219 -272v-70h-117v-68h578z" />
    <glyph glyph-name="uniFE86" unicode="&#x624;" horiz-adv-x="1200" arabic-form="final" 
d="M1228 98h-416v770h-260q-196 0 -319 -135q-121 -136 -121 -358q0 -180 94 -283q89 -92 236 -92h243q-3 -112 -61 -210q-77 -133 -229 -191l32 -53q352 95 385 454h416v98zM472 98q-231 0 -231 318q0 387 297 387h147v-705h-213zM659 1079l-84 -10h-205v53q0 221 178 221
q62 0 113 -38l2 -5l22 35l-2 2q-76 74 -176 74q-219 0 -219 -272v-70h-117v-68h578z" />
    <glyph glyph-name="afii57413" unicode="&#x625;" horiz-adv-x="393" arabic-form="isolated" 
d="M139 1309l28 -230v-1079h123v1079l19 244zM331 -337l-51 -7h-115v23q-3 123 98 123q33 0 70 -25l23 31q-52 51 -119 51q-137 0 -137 -172v-31h-70v-55h373z" />
    <glyph glyph-name="uniFE88" unicode="&#x625;" horiz-adv-x="587" arabic-form="final" 
d="M614 98h-127q-188 0 -188 221v1002l-156 -37l33 -244v-757q0 -283 262 -283h176v98zM358 -337l-51 -7h-115v23q-3 123 98 123q33 0 70 -25l23 31q-52 51 -119 51q-137 0 -137 -172v-31h-70v-55h373z" />
    <glyph glyph-name="afii57414" unicode="&#x626;" horiz-adv-x="1435" arabic-form="isolated" 
d="M412 803l-83 -12h-205v32q-3 224 176 224q60 0 112 -37l7 -4l22 32l-2 2q-102 90 -180 90q-234 0 -234 -266q0 -39 15 -73h-117l3 -84h575zM1010 98q-229 0 -229 314q0 391 293 391h149l15 63h-146q-200 0 -323 -135q-121 -133 -121 -356q0 -181 98 -283q88 -94 234 -94
l243 2q-3 -111 -61 -212q-76 -130 -229 -189l-250 -6q-220 0 -334 164q-115 164 -115 431v347h-121v-355q0 -644 541 -644l311 8q350 98 383 454l5 100h-343z" />
    <glyph glyph-name="uniFE8A" unicode="&#x626;" horiz-adv-x="1861" arabic-form="final" 
d="M1893 98h-123q-190 0 -190 221v549h-281q-198 0 -321 -135q-121 -136 -121 -358q0 -372 330 -375h36q-3 -119 -61 -221q-76 -137 -229 -174h-250q-217 0 -334 157q-115 153 -115 426v347h-121v-355q0 -634 541 -634h311q350 68 383 452v100h-131q-96 9 -159 82
q-72 84 -72 236q0 387 297 387h170v-520q0 -283 266 -283h174v98zM410 803l-84 -12h-204v32q0 224 178 224q60 0 112 -37l5 -4l24 32l-2 2q-102 90 -182 90q-234 0 -234 -266q0 -34 17 -73h-117v-84h578z" />
    <glyph glyph-name="uniFE8B" unicode="&#x626;" horiz-adv-x="622" arabic-form="initial" 
d="M511 868l-154 -39l31 -254v-256q0 -221 -191 -221h-227v-98h276q265 0 265 283v585zM523 1081l-84 -12h-205v53q0 221 176 221q62 0 113 -38h4l23 30l-2 2q-83 74 -177 74q-219 0 -219 -272v-70h-119v-65h578z" />
    <glyph glyph-name="uniFE8C" unicode="&#x626;" horiz-adv-x="714" arabic-form="medial" 
d="M730 98h-82q-191 0 -191 219v551l-158 -39l37 -258v-252q0 -221 -190 -221h-166v-98h219q126 0 197 86q70 -86 205 -86h129v98zM570 1081l-84 -12h-203l-2 53q0 221 180 221q60 0 111 -38h4l25 30l-3 2q-82 74 -180 74q-219 0 -219 -272v-70h-117v-65h578z" />
    <glyph glyph-name="afii57415" unicode="&#x627;" horiz-adv-x="393" arabic-form="isolated" 
d="M139 1309l29 -230v-1079h123v1079l18 244z" />
    <glyph glyph-name="uniFE8E" unicode="&#x627;" horiz-adv-x="587" arabic-form="final" 
d="M614 98h-127q-188 0 -188 221v1002l-156 -37l33 -244v-757q0 -283 262 -283h176v98z" />
    <glyph glyph-name="afii57416" unicode="&#x628;" horiz-adv-x="1726" arabic-form="isolated" 
d="M1642 868l-154 -39l33 -254v-256q0 -221 -192 -221h-848q-283 0 -283 387q0 138 61 230h-84q-63 -115 -63 -275q0 -202 95 -321q94 -119 253 -119h920q262 0 262 283v585zM898 -272q-88 0 -88 -90q0 -88 88 -88q95 0 95 86q0 92 -95 92z" />
    <glyph glyph-name="uniFE90" unicode="&#x628;" horiz-adv-x="1927" arabic-form="final" 
d="M1982 98h-150q-190 0 -190 219v551l-156 -39l33 -258v-254q0 -219 -188 -219h-850q-283 0 -283 387q0 138 61 230h-84q-63 -115 -63 -275q0 -202 95 -321q94 -119 253 -119h920q130 0 200 86q71 -86 205 -86h197v98zM898 -272q-88 0 -88 -90q0 -88 88 -88q95 0 95 86
q0 92 -95 92z" />
    <glyph glyph-name="uniFE91" unicode="&#x628;" horiz-adv-x="593" arabic-form="initial" 
d="M511 868l-154 -39l33 -254v-256q0 -221 -193 -221h-225v-98h274q265 0 265 283v585zM318 -272q-90 0 -90 -92q0 -90 90 -90q92 0 92 90q0 92 -92 92z" />
    <glyph glyph-name="uniFE92" unicode="&#x628;" horiz-adv-x="684" arabic-form="medial" 
d="M707 98h-82q-187 0 -187 219v551l-157 -39l32 -258v-252q0 -221 -190 -221h-166v-98h223q122 0 193 86q73 -86 205 -86h129v98zM373 -272q-90 0 -90 -90q0 -88 90 -88t90 86q0 92 -90 92z" />
    <glyph glyph-name="afii57506" unicode="&#x67e;" horiz-adv-x="1726" arabic-form="isolated" 
d="M1642 868l-154 -39l33 -254v-256q0 -221 -192 -221h-848q-283 0 -283 387q0 138 61 230h-84q-63 -115 -63 -275q0 -202 95 -321q94 -119 253 -119h920q262 0 262 283v585zM1046 -272q-90 0 -90 -90q0 -92 90 -92q88 0 88 92q0 90 -88 90zM776 -272q-93 0 -93 -90
q0 -92 93 -92q90 0 90 92q0 90 -90 90zM911 -516q-90 0 -90 -90t90 -90t90 94q0 86 -90 86z" />
    <glyph glyph-name="uniFB57" unicode="&#x67e;" horiz-adv-x="1927" arabic-form="final" 
d="M1982 98h-150q-190 0 -190 219v551l-156 -39l33 -258v-254q0 -219 -188 -219h-850q-283 0 -283 387q0 138 61 230h-84q-63 -115 -63 -275q0 -202 95 -321q94 -119 253 -119h920q130 0 200 86q71 -86 205 -86h197v98zM1046 -272q-90 0 -90 -90q0 -92 90 -92q88 0 88 92
q0 90 -88 90zM776 -272q-93 0 -93 -90q0 -92 93 -92q90 0 90 92q0 90 -90 90zM911 -516q-90 0 -90 -90t90 -90t90 94q0 86 -90 86z" />
    <glyph glyph-name="uniFB58" unicode="&#x67e;" horiz-adv-x="616" arabic-form="initial" 
d="M509 868l-156 -39l35 -254v-256q0 -221 -195 -221h-223v-98h274q265 0 265 283v585zM390 -272q-90 0 -90 -90q0 -92 90 -92t90 92q0 90 -90 90zM117 -272q-88 0 -88 -90q0 -92 88 -92q95 0 95 92q0 90 -95 90zM257 -516q-90 0 -90 -90t90 -90q88 0 88 94q0 86 -88 86z
" />
    <glyph glyph-name="uniFB59" unicode="&#x67e;" horiz-adv-x="684" arabic-form="medial" 
d="M699 98h-82q-189 0 -189 219v551l-155 -39l32 -258v-252q0 -221 -190 -221h-166v-98h223q122 0 193 86q73 -86 205 -86h129v98zM375 -272q-88 0 -88 -90q0 -92 88 -92q94 0 94 92q0 90 -94 90zM107 -272q-90 0 -90 -90q0 -92 90 -92t90 92q0 90 -90 90zM244 -516
q-92 0 -92 -90t92 -90q90 0 90 94q0 86 -90 86z" />
    <glyph glyph-name="afii57418" unicode="&#x62a;" horiz-adv-x="1726" arabic-form="isolated" 
d="M1025 950q-90 0 -90 -90q0 -92 90 -92q91 0 91 90q0 92 -91 92zM757 950q-90 0 -90 -90q0 -92 90 -92q88 0 88 90q0 92 -88 92zM1642 868l-154 -39l33 -254v-256q0 -221 -192 -221h-848q-283 0 -283 387q0 138 61 230h-84q-63 -115 -63 -275q0 -202 95 -321
q94 -119 253 -119h920q262 0 262 283v585z" />
    <glyph glyph-name="uniFE96" unicode="&#x62a;" horiz-adv-x="1927" arabic-form="final" 
d="M1025 950q-90 0 -90 -90q0 -92 90 -92q91 0 91 90q0 92 -91 92zM757 950q-90 0 -90 -90q0 -92 90 -92q88 0 88 90q0 92 -88 92zM1982 98h-150q-190 0 -190 219v551l-156 -39l33 -258v-254q0 -219 -188 -219h-850q-283 0 -283 387q0 138 61 230h-84q-63 -115 -63 -275
q0 -202 95 -321q94 -119 253 -119h920q130 0 200 86q71 -86 205 -86h197v98z" />
    <glyph glyph-name="uniFE97" unicode="&#x62a;" horiz-adv-x="585" arabic-form="initial" 
d="M398 1323q-88 0 -88 -90q0 -88 88 -88q90 0 90 86q0 92 -90 92zM130 1323q-90 0 -90 -90q0 -88 90 -88t90 86q0 92 -90 92zM503 868l-154 -39l33 -254v-256q0 -221 -191 -221h-227v-98h274q265 0 265 283v585z" />
    <glyph glyph-name="uniFE98" unicode="&#x62a;" horiz-adv-x="684" arabic-form="medial" 
d="M418 1323q-90 0 -90 -90q0 -88 90 -88t90 86q0 92 -90 92zM145 1323q-90 0 -90 -90q0 -88 90 -88q93 0 93 86q0 92 -93 92zM707 98h-82q-187 0 -187 219v551l-157 -39l32 -258v-252q0 -221 -190 -221h-166v-98h223q122 0 193 86q73 -86 205 -86h129v98z" />
    <glyph glyph-name="afii57419" unicode="&#x62b;" horiz-adv-x="1726" arabic-form="isolated" 
d="M890 1192q-88 0 -88 -90t88 -90q90 0 90 90t-90 90zM1025 950q-90 0 -90 -90q0 -92 90 -92q91 0 91 90q0 92 -91 92zM757 950q-90 0 -90 -90q0 -92 90 -92q88 0 88 90q0 92 -88 92zM1642 868l-154 -39l33 -254v-256q0 -221 -192 -221h-848q-283 0 -283 387q0 138 61 230
h-84q-63 -115 -63 -275q0 -202 95 -321q94 -119 253 -119h920q262 0 262 283v585z" />
    <glyph glyph-name="uniFE9A" unicode="&#x62b;" horiz-adv-x="1927" arabic-form="final" 
d="M890 1192q-88 0 -88 -90t88 -90q90 0 90 90t-90 90zM1025 950q-90 0 -90 -90q0 -92 90 -92q91 0 91 90q0 92 -91 92zM757 950q-90 0 -90 -90q0 -92 90 -92q88 0 88 90q0 92 -88 92zM1982 98h-150q-190 0 -190 219v551l-156 -39l33 -258v-254q0 -219 -188 -219h-850
q-283 0 -283 387q0 138 61 230h-84q-63 -115 -63 -275q0 -202 95 -321q94 -119 253 -119h920q130 0 200 86q71 -86 205 -86h197v98z" />
    <glyph glyph-name="uniFE9B" unicode="&#x62b;" horiz-adv-x="620" arabic-form="initial" 
d="M304 1567q-90 0 -90 -92q0 -91 90 -91t90 91q0 92 -90 92zM439 1323q-90 0 -90 -90q0 -88 90 -88q88 0 88 86q0 92 -88 92zM169 1323q-90 0 -90 -90q0 -88 90 -88t90 86q0 92 -90 92zM509 868l-156 -39l33 -254v-256q0 -221 -193 -221h-223v-98h274q265 0 265 283v585z
" />
    <glyph glyph-name="uniFE9C" unicode="&#x62b;" horiz-adv-x="684" arabic-form="medial" 
d="M283 1567q-93 0 -93 -92q0 -91 93 -91q90 0 90 91q0 92 -90 92zM418 1323q-92 0 -92 -90q0 -88 92 -88q90 0 90 86q0 92 -90 92zM145 1323q-90 0 -90 -90q0 -88 90 -88q91 0 91 86q0 92 -91 92zM707 98h-82q-187 0 -187 219v551l-157 -39l32 -258v-252q0 -221 -190 -221
h-166v-98h223q122 0 193 86q73 -86 205 -86h129v98z" />
    <glyph glyph-name="afii57420" unicode="&#x62c;" horiz-adv-x="1069" arabic-form="isolated" 
d="M984 580q0 128 -108 208t-279 80q-174 0 -282 -85q-109 -85 -109 -226h72q0 213 283 213q311 0 311 -221v-213h-760v-289q0 -434 504 -501l31 53q-170 22 -285 121q-127 108 -127 258v260h749v342zM601 53q-88 0 -88 -89q0 -93 88 -93q91 0 91 91t-91 91z" />
    <glyph glyph-name="uniFE9E" unicode="&#x62c;" horiz-adv-x="1236" arabic-form="final" 
d="M1259 98h-84q-191 0 -191 201v281q0 128 -108 208t-279 80q-174 0 -282 -85q-109 -85 -109 -226h72q0 213 283 213q311 0 311 -221v-213h-760v-293q0 -432 504 -499l31 53q-172 22 -285 117q-127 108 -127 258v264h645q40 -236 260 -236h119v98zM601 53q-88 0 -88 -89
q0 -93 88 -93q91 0 91 91t-91 91z" />
    <glyph glyph-name="uniFE9F" unicode="&#x62c;" horiz-adv-x="1140" arabic-form="initial" 
d="M1057 0q-15 231 -229 555q-236 363 -446 363q-119 0 -201 -103q-85 -106 -98 -283l114 17q-22 67 -22 119q0 166 135 166q158 0 352 -293q159 -236 215 -441l-905 -2v-98h1085zM515 -272q-90 0 -90 -90q0 -88 90 -88q88 0 88 86q0 92 -88 92z" />
    <glyph glyph-name="uniFEA0" unicode="&#x62c;" horiz-adv-x="1230" arabic-form="medial" 
d="M1246 100h-92q-67 239 -244 500q-219 318 -416 318q-120 0 -203 -103q-84 -106 -98 -283l117 17q-23 67 -23 119q0 166 134 166q160 0 354 -293q161 -245 215 -441l-1018 -2v-98h1274v100zM576 -272q-90 0 -90 -92q0 -90 90 -90q88 0 88 90q0 92 -88 92z" />
    <glyph glyph-name="afii57507" unicode="&#x686;" horiz-adv-x="1069" arabic-form="isolated" 
d="M728 131q-90 0 -90 -88q0 -90 90 -90q91 0 91 92q0 86 -91 86zM984 580q0 128 -108 208t-279 80q-174 0 -282 -85q-109 -85 -109 -226h72q0 213 283 213q311 0 311 -221v-213h-760v-289q0 -434 504 -501l31 53q-170 22 -285 121q-127 108 -127 258v260h749v342zM460 131
q-94 0 -94 -88q0 -90 94 -90q88 0 88 92q0 86 -88 86zM593 -108q-90 0 -90 -90q0 -92 90 -92t90 92q0 90 -90 90z" />
    <glyph glyph-name="uniFB7B" unicode="&#x686;" horiz-adv-x="1236" arabic-form="final" 
d="M1259 98h-84q-191 0 -191 201v281q0 128 -108 208t-279 80q-174 0 -282 -85q-109 -85 -109 -226h72q0 213 283 213q311 0 311 -221v-213h-760v-293q0 -432 504 -499l31 53q-172 22 -285 117q-127 108 -127 258v264h645q40 -236 260 -236h119v98zM728 131q-90 0 -90 -88
q0 -90 90 -90q91 0 91 92q0 86 -91 86zM460 131q-94 0 -94 -88q0 -90 94 -90q88 0 88 92q0 86 -88 86zM593 -108q-90 0 -90 -90q0 -92 90 -92t90 92q0 90 -90 90z" />
    <glyph glyph-name="uniFB7C" unicode="&#x686;" horiz-adv-x="1140" arabic-form="initial" 
d="M1057 0q-15 231 -229 555q-236 363 -446 363q-119 0 -201 -103q-85 -106 -98 -283l114 17q-22 67 -22 119q0 166 135 166q158 0 352 -293q159 -236 215 -441l-905 -2v-98h1085zM621 -272q-90 0 -90 -90q0 -92 90 -92q88 0 88 92q0 90 -88 90zM349 -272q-90 0 -90 -90
q0 -92 90 -92q92 0 92 92q0 90 -92 90zM486 -516q-90 0 -90 -90t90 -90t90 94q0 86 -90 86z" />
    <glyph glyph-name="uniFB7D" unicode="&#x686;" horiz-adv-x="1230" arabic-form="medial" 
d="M1246 100h-92q-67 239 -244 500q-219 318 -416 318q-120 0 -203 -103q-84 -106 -98 -283l117 17q-23 67 -23 119q0 166 134 166q160 0 354 -293q161 -245 215 -441l-1018 -2v-98h1274v100zM771 -272q-88 0 -88 -90q0 -92 88 -92q90 0 90 92q0 90 -90 90zM502 -272
q-92 0 -92 -90q0 -92 92 -92q91 0 91 92q0 90 -91 90zM638 -516q-91 0 -91 -90t91 -90q90 0 90 94q0 86 -90 86z" />
    <glyph glyph-name="afii57421" unicode="&#x62d;" horiz-adv-x="1069" arabic-form="isolated" 
d="M984 580q0 128 -108 208t-279 80q-174 0 -282 -85q-109 -85 -109 -226h72q0 213 283 213q311 0 311 -221v-213h-760v-289q0 -434 504 -501l31 53q-170 22 -285 121q-127 108 -127 258v260h749v342z" />
    <glyph glyph-name="uniFEA2" unicode="&#x62d;" horiz-adv-x="1236" arabic-form="final" 
d="M1259 98h-84q-191 0 -191 201v281q0 128 -108 208t-279 80q-174 0 -282 -85q-109 -85 -109 -226h72q0 213 283 213q311 0 311 -221v-213h-760v-293q0 -432 504 -499l31 53q-172 22 -285 117q-127 108 -127 258v264h645q40 -236 260 -236h119v98z" />
    <glyph glyph-name="uniFEA3" unicode="&#x62d;" horiz-adv-x="1140" arabic-form="initial" 
d="M1057 0q-15 231 -229 555q-236 363 -446 363q-119 0 -201 -103q-85 -106 -98 -283l114 17q-22 67 -22 119q0 166 135 166q158 0 352 -293q159 -236 215 -441l-905 -2v-98h1085z" />
    <glyph glyph-name="uniFEA4" unicode="&#x62d;" horiz-adv-x="1230" arabic-form="medial" 
d="M1246 100h-92q-67 239 -244 500q-219 318 -416 318q-120 0 -203 -103q-84 -106 -98 -283l117 17q-23 67 -23 119q0 166 134 166q160 0 354 -293q161 -245 215 -441l-1018 -2v-98h1274v100z" />
    <glyph glyph-name="afii57422" unicode="&#x62e;" horiz-adv-x="1069" arabic-form="isolated" 
d="M599 1323q-90 0 -90 -90q0 -88 90 -88q91 0 91 86q0 92 -91 92zM984 580q0 128 -108 208t-279 80q-174 0 -282 -85q-109 -85 -109 -226h72q0 213 283 213q311 0 311 -221v-213h-760v-289q0 -434 504 -501l31 53q-170 22 -285 121q-127 108 -127 258v260h749v342z" />
    <glyph glyph-name="uniFEA6" unicode="&#x62e;" horiz-adv-x="1236" arabic-form="final" 
d="M599 1323q-90 0 -90 -90q0 -88 90 -88q91 0 91 86q0 92 -91 92zM1259 98h-84q-191 0 -191 201v281q0 128 -108 208t-279 80q-174 0 -282 -85q-109 -85 -109 -226h72q0 213 283 213q311 0 311 -221v-213h-760v-293q0 -432 504 -499l31 53q-172 22 -285 117
q-127 108 -127 258v264h645q40 -236 260 -236h119v98z" />
    <glyph glyph-name="uniFEA7" unicode="&#x62e;" horiz-adv-x="1140" arabic-form="initial" 
d="M1057 0q-15 231 -229 555q-236 363 -446 363q-119 0 -201 -103q-85 -106 -98 -283l114 17q-22 67 -22 119q0 166 135 166q158 0 352 -293q159 -236 215 -441l-905 -2v-98h1085zM427 1323q-90 0 -90 -90q0 -88 90 -88t90 86q0 92 -90 92z" />
    <glyph glyph-name="uniFEA8" unicode="&#x62e;" horiz-adv-x="1230" arabic-form="medial" 
d="M611 1323q-88 0 -88 -90q0 -88 88 -88q90 0 90 86q0 92 -90 92zM1246 100h-92q-67 239 -244 500q-219 318 -416 318q-120 0 -203 -103q-84 -106 -98 -283l117 17q-23 67 -23 119q0 166 134 166q160 0 354 -293q161 -245 215 -441l-1018 -2v-98h1274v100z" />
    <glyph glyph-name="afii57423" unicode="&#x62f;" horiz-adv-x="911" arabic-form="isolated" 
d="M804 139v295q-3 207 -106 332q-105 129 -271 129l-12 -119q42 23 84 23q182 0 182 -328v-334l-4 -39h-542l-23 -98h715z" />
    <glyph glyph-name="uniFEAA" unicode="&#x62f;" horiz-adv-x="1058" arabic-form="final" 
d="M1079 98h-275v336q-3 207 -106 332q-105 129 -271 129l-12 -119q42 23 84 23q182 0 182 -328v-334l-4 -39h-542l-23 -98h967v98z" />
    <glyph glyph-name="afii57424" unicode="&#x630;" horiz-adv-x="940" arabic-form="isolated" 
d="M833 139v295q-3 205 -108 332q-102 129 -269 129l-14 -119q45 23 84 23q182 0 182 -328v-334l-2 -39h-544l-23 -98h717zM434 1323q-90 0 -90 -90q0 -88 90 -88t90 86q0 92 -90 92z" />
    <glyph glyph-name="uniFEAC" unicode="&#x630;" horiz-adv-x="1058" arabic-form="final" 
d="M1108 98h-275v336q-3 205 -108 332q-102 129 -269 129l-14 -119q45 23 84 23q182 0 182 -328v-334l-2 -39h-544l-23 -98h969v98zM434 1323q-90 0 -90 -90q0 -88 90 -88t90 86q0 92 -90 92z" />
    <glyph glyph-name="afii57425" unicode="&#x631;" horiz-adv-x="446" arabic-form="isolated" 
d="M363 868l-158 -39l33 -258v-563q0 -113 -57 -212q-81 -133 -236 -191l33 -55q385 108 385 528v790z" />
    <glyph glyph-name="uniFEAE" unicode="&#x631;" horiz-adv-x="630" arabic-form="final" 
d="M652 98h-99q-190 0 -190 219v551l-158 -39l33 -258v-563q0 -113 -57 -212q-81 -133 -236 -191l33 -55q363 101 385 483q56 -33 139 -33h150v98z" />
    <glyph glyph-name="afii57426" unicode="&#x632;" horiz-adv-x="471" arabic-form="isolated" 
d="M297 1323q-90 0 -90 -90q0 -88 90 -88t90 86q0 92 -90 92zM363 868l-158 -39l33 -258v-563q0 -113 -57 -212q-81 -133 -236 -191l33 -55q385 108 385 528v790z" />
    <glyph glyph-name="uniFEB0" unicode="&#x632;" horiz-adv-x="630" arabic-form="final" 
d="M297 1323q-90 0 -90 -90q0 -88 90 -88t90 86q0 92 -90 92zM652 98h-99q-190 0 -190 219v551l-158 -39l33 -258v-563q0 -113 -57 -212q-81 -133 -236 -191l33 -55q363 101 385 483q56 -33 139 -33h150v98z" />
    <glyph glyph-name="afii57508" unicode="&#x698;" horiz-adv-x="471" arabic-form="isolated" 
d="M363 868l-158 -39l33 -258v-563q0 -113 -57 -212q-81 -133 -235 -191l32 -55q385 108 385 528v790zM216 1565q-88 0 -88 -92q0 -91 88 -91q90 0 90 91q0 92 -90 92zM351 1321q-90 0 -90 -90q0 -88 90 -88q91 0 91 86q0 92 -91 92zM73 1321q-94 0 -94 -90q0 -88 94 -88
q88 0 88 86q0 92 -88 92z" />
    <glyph glyph-name="uniFB8B" unicode="&#x698;" horiz-adv-x="630" arabic-form="final" 
d="M652 98h-99q-190 0 -190 219v551l-158 -39l33 -258v-563q0 -113 -57 -212q-81 -133 -235 -191l32 -55q364 101 385 483q57 -33 139 -33h150v98zM216 1565q-88 0 -88 -92q0 -91 88 -91q90 0 90 91q0 92 -90 92zM351 1321q-90 0 -90 -90q0 -88 90 -88q91 0 91 86
q0 92 -91 92zM83 1321q-94 0 -94 -90q0 -88 94 -88q88 0 88 86q0 92 -88 92z" />
    <glyph glyph-name="afii57427" unicode="&#x633;" horiz-adv-x="2369" arabic-form="isolated" 
d="M2273 868l-158 -39l35 -258v-249q0 -218 -185 -218q-111 0 -219 123v553l-121 -30v-428q0 -218 -188 -218q-97 0 -205 111v565l-123 -30v-570q-3 -261 -127 -415q-122 -160 -301 -160q-219 0 -333 164q-115 164 -115 430v348h-121v-357q0 -640 541 -640q273 0 426 162
q150 156 153 419q107 -131 258 -131q184 0 242 168q107 -168 283 -168q258 0 258 283v585z" />
    <glyph glyph-name="uniFEB2" unicode="&#x633;" horiz-adv-x="2510" arabic-form="final" 
d="M2533 98h-80q-191 0 -191 215v555l-157 -39l35 -258v-249q0 -218 -185 -218q-111 0 -219 123v553l-121 -30v-428q0 -218 -188 -218q-94 0 -195 101v575l-123 -30v-570q-3 -261 -127 -415q-122 -160 -301 -160q-219 0 -333 164q-115 164 -115 430v348h-121v-357
q0 -640 541 -640q273 0 426 162q147 156 153 409q109 -121 248 -121q184 0 242 168q107 -168 282 -168q126 0 197 86q71 -86 205 -86h127v98z" />
    <glyph glyph-name="uniFEB3" unicode="&#x633;" horiz-adv-x="1609" arabic-form="initial" 
d="M1488 868l-158 -39l35 -258v-249q0 -218 -185 -218q-111 0 -219 123v553l-121 -30v-428q0 -218 -188 -218q-88 0 -186 93q8 30 8 69v514l-121 -30l-2 -431q0 -221 -191 -221h-188v-98h240q119 0 190 74q27 26 43 59q108 -133 260 -133q184 0 242 168q107 -168 282 -168
q259 0 259 283v585z" />
    <glyph glyph-name="uniFEB4" unicode="&#x633;" horiz-adv-x="1761" arabic-form="medial" 
d="M1780 98h-79q-191 0 -191 215v555l-158 -39l35 -258v-249q0 -218 -184 -218q-112 0 -219 123v553l-121 -30v-428q0 -218 -189 -218q-97 0 -204 111q4 33 4 51v514l-121 -30l-2 -431q0 -221 -191 -221h-188v-98h240q119 0 190 74q32 32 51 80q114 -154 275 -154
q183 0 241 168q107 -168 283 -168q126 0 197 86q70 -86 204 -86h127v98z" />
    <glyph glyph-name="afii57428" unicode="&#x634;" horiz-adv-x="2369" arabic-form="isolated" 
d="M2273 868l-158 -39l35 -258v-249q0 -218 -185 -218q-111 0 -219 123v553l-121 -30v-428q0 -218 -188 -218q-97 0 -205 111v565l-123 -30v-570q-3 -261 -127 -415q-122 -160 -301 -160q-219 0 -333 164q-115 164 -115 430v348h-121v-357q0 -640 541 -640q273 0 426 162
q150 156 153 419q107 -131 258 -131q184 0 242 168q107 -168 283 -168q258 0 258 283v585zM1685 1567q-90 0 -90 -92q0 -91 90 -91q88 0 88 91q0 92 -88 92zM1550 1323q-90 0 -90 -90q0 -88 90 -88t90 86q0 92 -90 92zM1818 1323q-88 0 -88 -90q0 -88 88 -88q90 0 90 86
q0 92 -90 92z" />
    <glyph glyph-name="uniFEB6" unicode="&#x634;" horiz-adv-x="2510" arabic-form="final" 
d="M2533 98h-80q-191 0 -191 215v555l-157 -39l35 -258v-249q0 -218 -185 -218q-111 0 -219 123v553l-121 -30v-428q0 -218 -188 -218q-94 0 -195 101v575l-123 -30v-570q-3 -261 -127 -415q-122 -160 -301 -160q-219 0 -333 164q-115 164 -115 430v348h-121v-357
q0 -640 541 -640q273 0 426 162q147 156 153 409q109 -121 248 -121q184 0 242 168q107 -168 282 -168q126 0 197 86q71 -86 205 -86h127v98zM1675 1567q-90 0 -90 -92q0 -91 90 -91q88 0 88 91q0 92 -88 92zM1539 1323q-90 0 -90 -90q0 -88 90 -88q91 0 91 86q0 92 -91 92z
M1808 1323q-88 0 -88 -90q0 -88 88 -88q90 0 90 86q0 92 -90 92z" />
    <glyph glyph-name="uniFEB7" unicode="&#x634;" horiz-adv-x="1609" arabic-form="initial" 
d="M1488 868l-158 -39l35 -258v-249q0 -218 -185 -218q-111 0 -219 123v553l-121 -30v-428q0 -218 -188 -218q-88 0 -186 93q8 30 8 69v514l-121 -30l-2 -431q0 -221 -191 -221h-188v-98h240q119 0 190 74q27 26 43 59q108 -133 260 -133q184 0 242 168q107 -168 282 -168
q259 0 259 283v585zM900 1567q-90 0 -90 -92q0 -91 90 -91q88 0 88 91q0 92 -88 92zM765 1323q-91 0 -91 -90q0 -88 91 -88q90 0 90 86q0 92 -90 92zM1033 1323q-88 0 -88 -90q0 -88 88 -88q90 0 90 86q0 92 -90 92z" />
    <glyph glyph-name="uniFEB8" unicode="&#x634;" horiz-adv-x="1761" arabic-form="medial" 
d="M1780 98h-79q-191 0 -191 215v555l-158 -39l35 -258v-249q0 -218 -184 -218q-112 0 -219 123v553l-121 -30v-428q0 -218 -189 -218q-97 0 -204 111q4 33 4 51v514l-121 -30l-2 -431q0 -221 -191 -221h-188v-98h240q119 0 190 74q32 32 51 80q114 -154 275 -154
q183 0 241 168q107 -168 283 -168q126 0 197 86q70 -86 204 -86h127v98zM922 1567q-90 0 -90 -92q0 -91 90 -91q88 0 88 91q0 92 -88 92zM787 1323q-90 0 -90 -90q0 -88 90 -88t90 86q0 92 -90 92zM1055 1323q-88 0 -88 -90q0 -88 88 -88q91 0 91 86q0 92 -91 92z" />
    <glyph glyph-name="afii57429" unicode="&#x635;" horiz-adv-x="2525" arabic-form="isolated" 
d="M2416 502q0 154 -129 250q-129 98 -336 98q-438 0 -702 -553l-17 -35v518l-123 -30v-570q-3 -261 -127 -415q-122 -160 -301 -160q-219 0 -333 164q-115 164 -115 430v348h-121v-357q0 -640 541 -640q273 0 426 162q110 116 141 288h1196v502zM1257 98q288 647 649 647
q383 0 383 -280v-367h-1032z" />
    <glyph glyph-name="uniFEBA" unicode="&#x635;" horiz-adv-x="2668" arabic-form="final" 
d="M2692 100h-282v402q0 154 -129 250q-129 98 -336 98q-438 0 -703 -553l-10 -23v506l-123 -30v-570q-3 -261 -127 -415q-122 -160 -301 -160q-219 0 -333 164q-115 164 -115 430v348h-121v-357q0 -640 541 -640q273 0 426 162q110 116 141 288h1472v100zM1251 98
q288 647 649 647q383 0 383 -280v-367h-1032z" />
    <glyph glyph-name="uniFEBB" unicode="&#x635;" horiz-adv-x="1753" arabic-form="initial" 
d="M1637 502q0 154 -129 250q-129 98 -336 98q-437 0 -698 -545v475l-121 -30l-2 -431q0 -221 -191 -221h-188v-98h240q73 0 151 78v-78h1274v502zM478 98q288 647 649 647q383 0 383 -280v-367h-1032z" />
    <glyph glyph-name="uniFEBC" unicode="&#x635;" horiz-adv-x="1898" arabic-form="medial" 
d="M1918 100h-283v402q0 154 -129 250q-129 98 -336 98q-435 0 -696 -541v471l-121 -30l-2 -431q0 -221 -191 -221h-188v-98h240q76 0 157 70v-70h1549v100zM476 98q288 647 649 647q383 0 383 -280v-367h-1032z" />
    <glyph glyph-name="afii57430" unicode="&#x636;" horiz-adv-x="2525" arabic-form="isolated" 
d="M2416 502q0 154 -129 250q-129 98 -336 98q-438 0 -702 -553l-17 -35v518l-123 -30v-570q-3 -261 -127 -415q-122 -160 -301 -160q-219 0 -333 164q-115 164 -115 430v348h-121v-357q0 -640 541 -640q273 0 426 162q110 116 141 288h1196v502zM1257 98q288 647 649 647
q383 0 383 -280v-367h-1032zM1902 1323q-90 0 -90 -90q0 -88 90 -88t90 86q0 92 -90 92z" />
    <glyph glyph-name="uniFEBE" unicode="&#x636;" horiz-adv-x="2668" arabic-form="final" 
d="M2692 100h-282v402q0 154 -129 250q-129 98 -336 98q-438 0 -703 -553l-10 -23v506l-123 -30v-570q-3 -261 -127 -415q-122 -160 -301 -160q-219 0 -333 164q-115 164 -115 430v348h-121v-357q0 -640 541 -640q273 0 426 162q110 116 141 288h1472v100zM1251 98
q288 647 649 647q383 0 383 -280v-367h-1032zM1896 1323q-90 0 -90 -90q0 -88 90 -88t90 86q0 92 -90 92z" />
    <glyph glyph-name="uniFEBF" unicode="&#x636;" horiz-adv-x="1753" arabic-form="initial" 
d="M1637 502q0 154 -129 250q-129 98 -336 98q-437 0 -698 -545v475l-121 -30l-2 -431q0 -221 -191 -221h-188v-98h240q73 0 151 78v-78h1274v502zM478 98q288 647 649 647q383 0 383 -280v-367h-1032zM1123 1323q-90 0 -90 -90q0 -88 90 -88t90 86q0 92 -90 92z" />
    <glyph glyph-name="uniFEC0" unicode="&#x636;" horiz-adv-x="1898" arabic-form="medial" 
d="M1918 100h-283v402q0 154 -129 250q-129 98 -336 98q-435 0 -696 -541v471l-121 -30l-2 -431q0 -221 -191 -221h-188v-98h240q76 0 157 70v-70h1549v100zM476 98q288 647 649 647q383 0 383 -280v-367h-1032zM1121 1323q-90 0 -90 -90q0 -88 90 -88t90 86q0 92 -90 92z
" />
    <glyph glyph-name="afii57431" unicode="&#x637;" horiz-adv-x="1673" arabic-form="isolated" 
d="M1589 502q0 154 -129 250q-129 98 -334 98q-438 0 -717 -592l16 758l17 244l-168 -19l28 -201v-942l-174 29l-16 -127h1477v502zM431 98q289 647 650 647q385 0 385 -280v-365z" />
    <glyph glyph-name="uniFEC2" unicode="&#x637;" horiz-adv-x="1800" arabic-form="final" 
d="M1824 100h-235v402q0 154 -129 250q-129 98 -334 98q-438 0 -717 -592l16 758l17 244l-168 -19l28 -201v-942l-174 29l-16 -127h1712v100zM431 98q289 647 650 647q385 0 385 -280v-365z" />
    <glyph glyph-name="uniFEC3" unicode="&#x637;" horiz-adv-x="1648" arabic-form="initial" 
d="M1565 502q0 155 -131 250q-129 98 -334 98q-436 0 -718 -592l16 758l20 244l-167 -19l24 -225v-918h-303v-98h1593v502zM408 98q289 647 647 647q383 0 383 -280v-367h-1030z" />
    <glyph glyph-name="uniFEC4" unicode="&#x637;" horiz-adv-x="1775" arabic-form="medial" 
d="M1801 100h-236v402q0 155 -131 250q-129 98 -334 98q-436 0 -718 -592l16 758l20 244l-167 -19l24 -225v-918h-303v-98h1829v100zM408 98q289 647 647 647q383 0 383 -280v-365z" />
    <glyph glyph-name="afii57432" unicode="&#x638;" horiz-adv-x="1673" arabic-form="isolated" 
d="M1034 1323q-93 0 -93 -90q0 -88 93 -88q90 0 90 86q0 92 -90 92zM1589 502q0 154 -129 250q-129 98 -334 98q-438 0 -717 -592l16 758l17 244l-168 -19l28 -201v-942l-174 29l-16 -127h1477v502zM431 98q289 647 650 647q385 0 385 -280v-365z" />
    <glyph glyph-name="uniFEC6" unicode="&#x638;" horiz-adv-x="1800" arabic-form="final" 
d="M1034 1323q-93 0 -93 -90q0 -88 93 -88q90 0 90 86q0 92 -90 92zM1824 100h-235v402q0 154 -129 250q-129 98 -334 98q-438 0 -717 -592l16 758l17 244l-168 -19l28 -201v-942l-174 29l-16 -127h1712v100zM431 98q289 647 650 647q385 0 385 -280v-365z" />
    <glyph glyph-name="uniFEC7" unicode="&#x638;" horiz-adv-x="1648" arabic-form="initial" 
d="M1035 1323q-92 0 -92 -90q0 -88 92 -88q90 0 90 86q0 92 -90 92zM1565 502q0 155 -131 250q-129 98 -334 98q-436 0 -718 -592l16 758l20 244l-167 -19l24 -225v-918h-303v-98h1593v502zM408 98q289 647 647 647q383 0 383 -280v-367h-1030z" />
    <glyph glyph-name="uniFEC8" unicode="&#x638;" horiz-adv-x="1775" arabic-form="medial" 
d="M1035 1323q-92 0 -92 -90q0 -88 92 -88q90 0 90 86q0 92 -90 92zM1801 100h-236v402q0 155 -131 250q-129 98 -334 98q-436 0 -718 -592l16 758l20 244l-167 -19l24 -225v-918h-303v-98h1829v100zM408 98q289 647 647 647q383 0 383 -280v-365z" />
    <glyph glyph-name="afii57433" unicode="&#x639;" horiz-adv-x="1161" arabic-form="isolated" 
d="M1072 401l-226 -28h-348l14 2h-14l-4 35q0 170 79 274t210 104q119 0 231 -75l33 47q-155 121 -307 121q-157 0 -264 -129q-105 -129 -105 -326q0 -18 1 -34q1 -12 3 -25q-265 -78 -250 -365q10 -215 179 -341q130 -94 323 -115l33 53q-163 21 -276 113
q-145 113 -136 296q4 109 29 152q62 114 250 114h563z" />
    <glyph glyph-name="uniFECA" unicode="&#x639;" horiz-adv-x="1171" arabic-form="final" 
d="M1202 98h-144q-97 0 -198 99q-45 45 -110 114l-107 115l440 317q0 114 -123 209q-138 111 -326 111q-186 0 -321 -111q-127 -96 -127 -209l172 -172l121 -125l-213 -151q-156 -110 -144 -281q16 -219 179 -339q128 -95 323 -117l33 53q-157 21 -272 109
q-148 114 -142 303q3 115 111 192l205 150q254 -258 278 -275q109 -90 213 -90h152v98zM565 508l-236 237q0 77 82 138q92 67 223 67q132 -3 220 -63q78 -54 81 -117z" />
    <glyph glyph-name="uniFECB" unicode="&#x639;" horiz-adv-x="1040" arabic-form="initial" 
d="M941 127l-228 -29h-104q-108 0 -182 78q-82 82 -82 232q0 171 79 273q79 103 214 103q115 0 227 -75l33 49q-153 119 -310 119q-154 0 -262 -129q-104 -126 -104 -324q0 -212 135 -326h-385v-98h985z" />
    <glyph glyph-name="uniFECC" unicode="&#x639;" horiz-adv-x="1300" arabic-form="medial" 
d="M1332 98h-404q-80 0 -157 31l391 393q0 123 -137 230q-148 116 -351 116q-201 0 -352 -116q-137 -107 -137 -230q377 -383 391 -393q-80 -31 -160 -31h-444v-98h463q126 6 239 61q111 -58 244 -61h414v98zM677 180q-47 46 -113 112l-96 94q-98 96 -142 140q0 85 92 156
q106 78 256 78q158 0 261 -78q90 -68 90 -156z" />
    <glyph glyph-name="afii57434" unicode="&#x63a;" horiz-adv-x="1161" arabic-form="isolated" 
d="M762 1323q-94 0 -94 -90q0 -88 94 -88q88 0 88 86q0 92 -88 92zM1072 401l-226 -28h-348l14 2h-14l-4 35q0 170 79 274t210 104q119 0 231 -75l33 47q-155 121 -307 121q-157 0 -264 -129q-105 -129 -105 -326q0 -18 1 -34q1 -12 3 -25q-265 -78 -250 -365
q10 -215 179 -341q130 -94 323 -115l33 53q-163 21 -276 113q-145 113 -136 296q4 109 29 152q62 114 250 114h563z" />
    <glyph glyph-name="uniFECE" unicode="&#x63a;" horiz-adv-x="1171" arabic-form="final" 
d="M653 1415q-90 0 -90 -88q0 -90 90 -90q88 0 88 90q0 88 -88 88zM1202 98h-144q-97 0 -198 99q-45 45 -110 114l-107 115l440 317q0 114 -123 209q-138 111 -326 111q-186 0 -321 -111q-127 -96 -127 -209l172 -172l121 -125l-213 -151q-156 -110 -144 -281
q16 -219 179 -339q128 -95 323 -117l33 53q-157 21 -272 109q-148 114 -142 303q3 115 111 192l205 150q254 -258 278 -275q109 -90 213 -90h152v98zM565 508l-236 237q0 77 82 138q92 67 223 67q132 -3 220 -63q78 -54 81 -117z" />
    <glyph glyph-name="uniFECF" unicode="&#x63a;" horiz-adv-x="1040" arabic-form="initial" 
d="M588 1323q-88 0 -88 -90q0 -88 88 -88q91 0 91 86q0 92 -91 92zM941 127l-228 -29h-104q-108 0 -182 78q-82 82 -82 232q0 171 79 273q79 103 214 103q115 0 227 -75l33 49q-153 119 -310 119q-154 0 -262 -129q-104 -126 -104 -324q0 -212 135 -326h-385v-98h985z" />
    <glyph glyph-name="uniFED0" unicode="&#x63a;" horiz-adv-x="1300" arabic-form="medial" 
d="M670 1323q-90 0 -90 -90q0 -88 90 -88t90 86q0 92 -90 92zM1332 98h-404q-80 0 -157 31l391 393q0 123 -137 230q-148 116 -351 116q-201 0 -352 -116q-137 -107 -137 -230q377 -383 391 -393q-80 -31 -160 -31h-444v-98h463q126 6 239 61q111 -58 244 -61h414v98z
M677 180q-47 46 -113 112l-96 94q-98 96 -142 140q0 85 92 156q106 78 256 78q158 0 261 -78q90 -68 90 -156z" />
    <glyph glyph-name="afii57441" unicode="&#x641;" horiz-adv-x="1724" arabic-form="isolated" 
d="M1337 1323q-90 0 -90 -90q0 -88 90 -88t90 86q0 92 -90 92zM1640 614q-3 128 -76 213q-83 86 -235 86q-114 0 -197 -61q-109 -84 -109 -246q0 -307 306 -307q112 0 180 27q-9 -228 -289 -228h-739q-283 0 -283 387q0 138 61 230h-84q-63 -115 -63 -275q0 -202 95 -321
q94 -119 253 -119h731q244 0 342 104q107 113 107 406v104zM1511 408q-71 -43 -191 -43q-176 0 -176 227q0 260 191 260q184 0 184 -244q0 -170 -8 -200z" />
    <glyph glyph-name="uniFED2" unicode="&#x641;" horiz-adv-x="1783" arabic-form="final" 
d="M1228 1323q-90 0 -90 -90q0 -88 90 -88q92 0 92 86q0 92 -92 92zM1810 98h-344q180 129 180 353q0 188 -109 301q-110 116 -299 116q-188 0 -298 -116q-107 -113 -107 -301q0 -223 176 -353h-528q-283 0 -283 387q0 138 61 230h-84q-63 -115 -63 -275q0 -202 95 -321
q94 -119 253 -119h604q86 0 174 16h2q95 -16 172 -16h398v98zM1449 221q-73 -125 -209 -125q-142 0 -213 117q-57 97 -57 252q0 160 84 250q78 84 184 84q110 0 189 -88q82 -85 82 -246q0 -141 -60 -244z" />
    <glyph glyph-name="uniFED3" unicode="&#x641;" horiz-adv-x="815" arabic-form="initial" 
d="M429 1323q-88 0 -88 -90q0 -88 88 -88q94 0 94 86q0 92 -94 92zM732 614q0 132 -76 213q-83 86 -235 86q-115 0 -195 -61q-111 -83 -111 -246q0 -307 306 -307q112 0 180 27q-3 -228 -289 -228h-340v-98h311q244 0 342 104q107 113 107 406v104zM603 408
q-71 -43 -191 -43q-176 0 -176 227q0 260 191 260q184 0 184 -244q0 -170 -8 -200z" />
    <glyph glyph-name="uniFED4" unicode="&#x641;" horiz-adv-x="1124" arabic-form="medial" 
d="M570 1323q-91 0 -91 -90q0 -88 91 -88q90 0 90 86q0 92 -90 92zM1153 98h-346q180 129 180 353q0 188 -108 301q-111 116 -299 116q-189 0 -299 -116q-107 -113 -107 -301q0 -223 176 -353h-358v-98h416q83 0 172 16q95 -16 174 -16h399v98zM791 221q-73 -125 -207 -125
q-143 0 -217 117q-56 98 -56 252q0 160 84 250q75 84 185 84q115 0 190 -87q80 -93 80 -247q0 -141 -59 -244z" />
    <glyph glyph-name="afii57442" unicode="&#x642;" horiz-adv-x="1286" arabic-form="isolated" 
d="M1054 1323q-92 0 -92 -90q0 -88 92 -88q90 0 90 86q0 92 -90 92zM782 1323q-90 0 -90 -90q0 -88 90 -88t90 86q0 92 -90 92zM1202 868h-261q-198 0 -321 -135q-121 -136 -121 -354q0 -399 313 -399q100 0 267 40v-30q0 -383 -357 -383q-225 0 -350 137q-143 150 -143 455
v151h-117v-160q0 -640 594 -640q496 -3 496 440v878zM1073 123q-111 -39 -213 -39q-230 0 -230 332q0 387 297 387h146v-680z" />
    <glyph glyph-name="uniFED6" unicode="&#x642;" horiz-adv-x="1404" arabic-form="final" 
d="M964 1323q-90 0 -90 -90q0 -88 90 -88q92 0 92 86q0 92 -92 92zM696 1323q-90 0 -90 -90q0 -88 90 -88q88 0 88 86q0 92 -88 92zM1441 98h-235v770h-263q-194 0 -317 -135t-123 -358q0 -177 96 -283q90 -92 236 -92h244q0 -389 -357 -389q-223 0 -350 140
q-143 152 -143 456v151h-117v-155q0 -653 594 -653q500 0 500 450h235v98zM866 98q-234 0 -234 318q0 387 299 387h148v-705h-213z" />
    <glyph glyph-name="uniFED7" unicode="&#x642;" horiz-adv-x="815" arabic-form="initial" 
d="M547 1323q-90 0 -90 -90q0 -88 90 -88q91 0 91 86q0 92 -91 92zM279 1323q-90 0 -90 -90q0 -88 90 -88q88 0 88 86q0 92 -88 92zM732 614q0 132 -76 213q-83 86 -235 86q-115 0 -195 -61q-111 -83 -111 -246q0 -307 306 -307q112 0 180 27q-3 -228 -289 -228h-340v-98
h311q244 0 342 104q107 113 107 406v104zM603 408q-71 -43 -191 -43q-176 0 -176 227q0 260 191 260q184 0 184 -244q0 -170 -8 -200z" />
    <glyph glyph-name="uniFED8" unicode="&#x642;" horiz-adv-x="1124" arabic-form="medial" 
d="M715 1323q-90 0 -90 -90q0 -88 90 -88t90 86q0 92 -90 92zM447 1323q-95 0 -95 -90q0 -88 95 -88q88 0 88 86q0 92 -88 92zM1153 98h-346q180 129 180 353q0 188 -108 301q-111 116 -299 116q-189 0 -299 -116q-107 -113 -107 -301q0 -223 176 -353h-358v-98h416
q83 0 172 16q95 -16 174 -16h399v98zM791 221q-73 -125 -207 -125q-143 0 -217 117q-56 98 -56 252q0 160 84 250q75 84 185 84q115 0 190 -87q80 -93 80 -247q0 -141 -59 -244z" />
    <glyph glyph-name="afii57443" unicode="&#x643;" horiz-adv-x="1726" arabic-form="isolated" 
d="M1068 737l-84 -10h-204v53q0 221 178 221q62 0 112 -38l3 -5l22 35l-2 2q-77 74 -176 74q-219 0 -219 -272v-70h-119v-68h577zM1642 1327l-154 -41l33 -252v-715q-3 -221 -192 -221h-848q-283 0 -283 387q0 138 61 230h-84q-63 -115 -63 -275q0 -202 95 -321
q94 -119 253 -119h920q262 0 262 283v1044z" />
    <glyph glyph-name="uniFB8F" unicode="&#x6a9;" horiz-adv-x="1927" arabic-form="final" 
d="M1068 737l-84 -10h-204v53q0 221 178 221q62 0 112 -38l3 -5l22 35l-2 2q-77 74 -176 74q-219 0 -219 -272v-70h-119v-68h577zM1982 98h-150q-190 0 -190 219v1006l-156 -39l33 -258v-709q0 -219 -188 -219h-850q-283 0 -283 387q0 138 61 230h-84q-63 -115 -63 -275
q0 -202 95 -321q94 -119 253 -119h920q130 0 200 86q71 -86 205 -86h197v98z" />
    <glyph glyph-name="uniFB90" unicode="&#x6a9;" horiz-adv-x="1314" arabic-form="initial" 
d="M1231 522q0 156 -131 250q-130 96 -333 96h-457l237 267l205 188h-164q-187 -243 -495 -557h628q388 0 388 -281v-387h-1133v-98h1255v522z" />
    <glyph glyph-name="uniFB91" unicode="&#x6a9;" horiz-adv-x="1392" arabic-form="medial" 
d="M1420 100h-191v422q0 155 -129 250q-130 96 -333 96h-461l241 267l205 188h-166q-181 -238 -493 -557h628q388 0 388 -281v-387h-1133v-98h1444v100z" />
    <glyph glyph-name="afii57509" unicode="&#x6af;" horiz-adv-x="1893" arabic-form="isolated" 
d="M1728 0l1 100v422q0 155 -129 250q-130 96 -333 96h-461l241 267l205 188h-166q-181 -238 -493 -557h628q388 0 388 -281v-387h-1128q-283 0 -283 387q0 138 61 230h-84q-63 -115 -63 -275q0 -202 95 -321q94 -119 253 -119h1268zM541 925l-1 -88l437 484h-94z" />
    <glyph glyph-name="uniFB93" unicode="&#x6af;" horiz-adv-x="1893" arabic-form="final" 
d="M1920 0v100h-191v422q0 155 -129 250q-130 96 -333 96h-461l241 267l205 188h-166q-181 -238 -493 -557h628q388 0 388 -281v-387h-1128q-283 0 -283 387q0 138 61 230h-84q-63 -115 -63 -275q0 -202 95 -321q94 -119 253 -119h1460zM541 925l-1 -88l437 484h-94z" />
    <glyph glyph-name="uniFB94" unicode="&#x6af;" horiz-adv-x="1314" arabic-form="initial" 
d="M1231 522q0 156 -131 250q-130 96 -333 96h-457l237 267l205 188h-164q-187 -243 -495 -557h628q388 0 388 -281v-387h-1133v-98h1255v522zM41 925l-1 -88l437 484h-94z" />
    <glyph glyph-name="uniFB95" unicode="&#x6af;" horiz-adv-x="1392" arabic-form="medial" 
d="M1420 100h-191v422q0 155 -129 250q-130 96 -333 96h-461l241 267l205 188h-166q-181 -238 -493 -557h628q388 0 388 -281v-387h-1133v-98h1444v100zM41 925l-1 -88l437 484h-94z" />
    <glyph glyph-name="afii57444" unicode="&#x644;" horiz-adv-x="1316" arabic-form="isolated" 
d="M1077 1284l34 -252v-852q0 -254 -127 -421q-126 -154 -303 -154q-219 0 -333 164q-115 164 -115 430v348h-121v-357q0 -640 541 -640q273 0 426 162q153 159 153 427v1184z" />
    <glyph glyph-name="uniFEDE" unicode="&#x644;" horiz-adv-x="1542" arabic-form="final" 
d="M1570 98h-147q-191 0 -191 213v1012l-155 -39l34 -252v-852q0 -257 -127 -415q-126 -160 -303 -160q-219 0 -333 164q-115 164 -115 430v348h-121v-357q0 -640 541 -640q245 0 397 131q148 132 178 358q60 -39 148 -39h194v98z" />
    <glyph glyph-name="uniFEDF" unicode="&#x644;" horiz-adv-x="653" arabic-form="initial" 
d="M570 1323l-153 -39l32 -252v-713q0 -221 -192 -221h-293v-98h342q264 0 264 283v1040z" />
    <glyph glyph-name="uniFEE0" unicode="&#x644;" horiz-adv-x="684" arabic-form="medial" 
d="M707 98h-82q-187 0 -187 219v1006l-157 -39l32 -258v-707q0 -221 -190 -221h-166v-98h223q122 0 193 86q73 -86 205 -86h129v98z" />
    <glyph glyph-name="afii57445" unicode="&#x645;" horiz-adv-x="1351" arabic-form="isolated" 
d="M1267 868q-117 41 -252 41q-217 0 -344 -139t-127 -369q0 -190 88 -303h-258q-262 0 -262 -282v-164l123 -94v223q0 219 190 219h412q414 0 414 352v316zM1124 655q14 -100 14 -198q0 -147 -35 -219q-46 -134 -217 -134q-213 0 -213 338q0 172 66 275q80 117 231 117
q53 0 133 -23z" />
    <glyph glyph-name="uniFEE2" unicode="&#x645;" horiz-adv-x="1521" arabic-form="final" 
d="M1542 98h-101q-190 0 -190 219v351l16 200q-117 41 -252 41q-217 0 -344 -139t-127 -369q0 -190 88 -303h-258q-262 0 -262 -282v-164l123 -94v223q0 219 190 219h412q226 0 332 115q65 -115 221 -115h152v98zM1124 655q14 -100 14 -198q0 -147 -35 -219
q-46 -134 -217 -134q-213 0 -213 338q0 172 66 275q80 117 231 117q53 0 133 -23z" />
    <glyph glyph-name="uniFEE3" unicode="&#x645;" horiz-adv-x="1005" arabic-form="initial" 
d="M922 868q-116 41 -252 41q-214 0 -344 -139q-127 -139 -127 -369q0 -188 90 -303h-317v-98h522q412 0 412 352v316zM781 655q18 -138 18 -221q0 -336 -258 -336q-97 0 -155 96q-58 95 -58 248q0 173 68 275q77 117 229 117q55 0 135 -23z" />
    <glyph glyph-name="uniFEE4" unicode="&#x645;" horiz-adv-x="1269" arabic-form="medial" 
d="M1293 98h-123q-194 0 -190 221v226l18 198q-111 39 -252 39q-214 0 -339 -133q-126 -133 -132 -366q-6 -185 -184 -185h-115v-98h170q99 0 168 59q79 -185 256 -185q214 0 348 216q93 -90 205 -90h170v98zM857 104q-103 -126 -240 -126q-98 0 -157 94q-58 94 -58 247
q0 173 70 273q76 117 229 117q55 0 135 -23l21 -156v-426z" />
    <glyph glyph-name="afii57446" unicode="&#x646;" horiz-adv-x="1316" arabic-form="isolated" 
d="M667 692q-100 0 -100 -100q0 -98 100 -98t100 98q0 100 -100 100zM1077 829l34 -254v-395q0 -257 -127 -415q-126 -160 -303 -160q-219 0 -333 164q-115 164 -115 430v348h-121v-357q0 -640 541 -640q273 0 426 162q153 159 153 427v729z" />
    <glyph glyph-name="uniFEE6" unicode="&#x646;" horiz-adv-x="1544" arabic-form="final" 
d="M667 692q-100 0 -100 -100q0 -98 100 -98t100 98q0 100 -100 100zM1572 98h-149q-191 0 -191 213v557l-155 -39l34 -251v-398q0 -254 -127 -421q-126 -154 -303 -154q-219 0 -333 164q-115 164 -115 430v348h-121v-357q0 -640 541 -640q512 0 575 489q60 -39 148 -39h196
v98z" />
    <glyph glyph-name="uniFEE7" unicode="&#x646;" horiz-adv-x="591" arabic-form="initial" 
d="M298 1323q-90 0 -90 -90q0 -88 90 -88t90 86q0 92 -90 92zM509 868l-156 -39l33 -254v-256q0 -221 -193 -221h-223v-98h274q265 0 265 283v585z" />
    <glyph glyph-name="uniFEE8" unicode="&#x646;" horiz-adv-x="684" arabic-form="medial" 
d="M365 1323q-91 0 -91 -90q0 -88 91 -88q90 0 90 86q0 92 -90 92zM707 98h-82q-187 0 -187 219v551l-157 -39l32 -258v-252q0 -221 -190 -221h-166v-98h223q122 0 193 86q73 -86 205 -86h129v98z" />
    <glyph glyph-name="afii57448" unicode="&#x648;" horiz-adv-x="897" arabic-form="isolated" 
d="M812 868h-260q-196 0 -319 -135q-121 -136 -121 -358q0 -395 311 -395q105 0 262 40q0 -308 -290 -415l32 -55q385 108 385 528v790zM685 123q-113 -39 -213 -39q-231 0 -231 332q0 387 297 387h147v-680z" />
    <glyph glyph-name="uniFEEE" unicode="&#x648;" horiz-adv-x="1200" arabic-form="final" 
d="M1228 98h-416v770h-260q-196 0 -319 -135q-121 -136 -121 -358q0 -180 94 -283q89 -92 236 -92h243q-3 -112 -61 -210q-77 -133 -229 -191l32 -53q352 95 385 454h416v98zM472 98q-231 0 -231 318q0 387 297 387h147v-705h-213z" />
    <glyph glyph-name="afii57470" unicode="&#x647;" horiz-adv-x="919" arabic-form="isolated" 
d="M841 856q-111 39 -252 39q-213 0 -338 -133t-133 -367q-6 -182 90 -303q88 -106 225 -106q199 0 330 217q45 86 58 125v327zM698 215q-101 -125 -236 -125q-215 0 -215 342q0 171 68 273q76 116 229 116q55 0 135 -22l19 -156v-428z" />
    <glyph glyph-name="uniFEEA" unicode="&#x647;" horiz-adv-x="1064" arabic-form="final" 
d="M1091 98h-88q-191 0 -191 219v715l-161 -39l10 -112h-109q-197 0 -319 -119q-121 -121 -121 -316q0 -399 311 -399q175 6 277 80q21 -43 80 -80q78 -47 172 -47h139v98zM685 190q-113 -38 -213 -38q-228 0 -231 329q0 142 88 236q87 93 209 96q37 2 137 2z" />
    <glyph glyph-name="uniFEEB" unicode="&#x647;" horiz-adv-x="1228" arabic-form="initial" 
d="M1146 522q0 177 -156 269q-127 75 -336 75q-200 0 -348 -63l-17 -90q143 63 322 63q177 0 285 -67q125 -77 125 -224v-387h-197l4 334q0 109 -74 176q-68 60 -170 60q-137 0 -235 -99q-115 -114 -121 -309q-6 -91 25 -162h-281v-98h1174v522zM519 98q-185 0 -185 193
q0 145 82 233q66 78 160 78q146 0 146 -156v-348h-203z" />
    <glyph glyph-name="uniFEEC" unicode="&#x647;" horiz-adv-x="1255" arabic-form="medial" 
d="M1285 98h-139v424q0 177 -156 269q-127 75 -336 75q-200 0 -348 -63l-17 -90q143 63 322 63q177 0 285 -67q125 -77 125 -224v-387h-197l4 334q0 109 -74 176q-68 60 -170 60q-137 0 -235 -99q-115 -114 -121 -309q-6 -91 25 -162h-281v-98h1313v98zM519 98
q-185 0 -185 193q0 145 82 233q66 78 160 78q146 0 146 -156v-348h-203z" />
    <glyph glyph-name="afii57417" unicode="&#x629;" horiz-adv-x="919" arabic-form="isolated" 
d="M841 856q-111 39 -252 39q-213 0 -338 -133t-133 -367q-6 -182 90 -303q88 -106 225 -106q199 0 330 217q45 86 58 125v327zM698 215q-101 -125 -236 -125q-215 0 -215 342q0 171 68 273q76 116 229 116q55 0 135 -22l19 -156v-428z" />
    <glyph glyph-name="uniFBA5" unicode="&#x6c0;" horiz-adv-x="1064" arabic-form="final" 
d="M1091 98h-88q-191 0 -191 219v715l-161 -39l10 -112h-109q-197 0 -319 -119q-121 -121 -121 -316q0 -399 311 -399q175 6 277 80q21 -43 80 -80q78 -47 172 -47h139v98zM685 190q-113 -38 -213 -38q-228 0 -231 329q0 142 88 236q87 93 209 96q37 2 137 2z" />
    <glyph glyph-name="afii57450" unicode="&#x64a;" horiz-adv-x="1435" arabic-form="isolated" 
d="M1009 98q-229 0 -229 314q0 391 293 391h149l14 63h-145q-201 0 -324 -135q-120 -133 -120 -356q0 -181 98 -283q88 -94 233 -94l244 2q-3 -111 -61 -212q-76 -130 -230 -189l-250 -6q-219 0 -333 164q-115 164 -115 431v347h-121v-355q0 -644 541 -644l311 8
q349 98 383 454l4 100h-342z" />
    <glyph glyph-name="uniFBFD" unicode="&#x6cc;" horiz-adv-x="1861" arabic-form="final" 
d="M1892 98h-123q-191 0 -191 221v549h-280q-199 0 -322 -135q-121 -136 -121 -358q0 -372 330 -375h37q-3 -119 -61 -221q-77 -137 -230 -174h-250q-216 0 -334 157q-114 153 -114 426v347h-121v-355q0 -634 541 -634h311q349 68 383 452v100h-131q-96 9 -160 82
q-72 84 -72 236q0 387 297 387h170v-520q0 -283 267 -283h174v98z" />
    <glyph glyph-name="uniFBFE" unicode="&#x6cc;" horiz-adv-x="587" arabic-form="initial" 
d="M504 868l-155 -39l32 -254v-256q0 -221 -190 -221h-227v-98h278q262 0 262 283v585zM303 -272q-90 0 -90 -92q0 -90 90 -90q91 0 91 90q0 92 -91 92zM31 -272q-90 0 -90 -92q0 -90 90 -90q92 0 92 90q0 92 -92 92z" />
    <glyph glyph-name="uniFBFF" unicode="&#x6cc;" horiz-adv-x="684" arabic-form="medial" 
d="M707 98h-82q-187 0 -187 219v551l-157 -39l32 -258v-252q0 -221 -190 -221h-166v-98h223q122 0 193 86q73 -86 205 -86h129v98zM350 -272q-90 0 -90 -90q0 -88 90 -88q92 0 92 86q0 92 -92 92zM82 -272q-90 0 -90 -90q0 -88 90 -88t90 86q0 92 -90 92z" />
    <glyph glyph-name="afii57449" unicode="&#x649;" horiz-adv-x="1435" arabic-form="isolated" 
d="M1009 98q-229 0 -229 314q0 391 293 391h149l14 63h-145q-201 0 -324 -135q-120 -133 -120 -356q0 -181 98 -283q88 -94 233 -94l244 2q-3 -111 -61 -212q-76 -130 -230 -189l-250 -6q-219 0 -333 164q-115 164 -115 431v347h-121v-355q0 -644 541 -644l311 8
q349 98 383 454l4 100h-342z" />
    <glyph glyph-name="uniFEF0" unicode="&#x649;" horiz-adv-x="1861" arabic-form="final" 
d="M1892 98h-123q-191 0 -191 221v549h-280q-199 0 -322 -135q-121 -136 -121 -358q0 -372 330 -375h37q-3 -119 -61 -221q-77 -137 -230 -174h-250q-216 0 -334 157q-114 153 -114 426v347h-121v-355q0 -634 541 -634h311q349 68 383 452v100h-131q-96 9 -160 82
q-72 84 -72 236q0 387 297 387h170v-520q0 -283 267 -283h174v98z" />
    <glyph glyph-name="glyph1" 
 />
    <glyph glyph-name="glyph2" horiz-adv-x="400" 
 />
    <glyph glyph-name="space" unicode=" " horiz-adv-x="400" 
 />
    <glyph glyph-name="exclam" unicode="!" horiz-adv-x="616" 
d="M274 1323h-139v-342l45 -600h53l41 600v342zM204 197q-98 0 -98 -99q0 -98 98 -98q95 0 95 98q0 99 -95 99z" />
    <glyph glyph-name="percent" unicode="%" horiz-adv-x="704" 
d="M251 1184q-84 0 -84 -88q0 -84 84 -84t84 84q0 88 -84 88zM515 1251l-403 -1245l76 -26l403 1245zM468 268q-84 0 -84 -84t84 -84t84 84t-84 84z" />
    <glyph glyph-name="parenleft" unicode="(" horiz-adv-x="575" 
d="M540 -299q-175 182 -250 352q-80 181 -80 420q0 240 80 424q79 181 250 354l-47 47q-420 -327 -420 -825q0 -495 420 -823z" />
    <glyph glyph-name="parenright" unicode=")" horiz-adv-x="575" 
d="M83 1298l-47 -47q171 -177 250 -356q78 -184 78 -422q0 -442 -328 -776l47 -47q418 329 418 823t-418 825z" />
    <glyph glyph-name="asterisk" unicode="*" horiz-adv-x="927" 
d="M515 416l334 151l-61 107l-297 -213l35 362h-125l36 -362l-299 213l-61 -107l334 -151l-334 -152l61 -106l299 209l-36 -361h125l-35 361l297 -209l61 106z" />
    <glyph glyph-name="plus" unicode="+" horiz-adv-x="1015" 
d="M903 571h-357v373h-78v-373h-356v-75h356v-383h78v383h357v75z" />
    <glyph glyph-name="comma" unicode="," horiz-adv-x="456" 
d="M134 0q209 52 209 264q0 168 -117 168q-98 0 -98 -100q0 -102 109 -99l4 -34q0 -104 -129 -138z" />
    <glyph glyph-name="hyphen" unicode="-" horiz-adv-x="1167" 
d="M1054 463h-942v-76h942v76z" />
    <glyph glyph-name="period" unicode="." horiz-adv-x="432" 
d="M214 211q-102 0 -102 -107q0 -104 102 -104q105 0 105 104q0 107 -105 107z" />
    <glyph glyph-name="slash" unicode="/" horiz-adv-x="555" 
d="M439 1251l-403 -1245l76 -26l403 1245z" />
    <glyph glyph-name="zero" unicode="0" horiz-adv-x="442" 
d="M307 395l-172 -43v-198l172 43v198z" />
    <glyph glyph-name="zero" unicode="&#x6f0;" horiz-adv-x="442" 
d="M307 395l-172 -43v-198l172 43v198z" />
    <glyph glyph-name="zero" unicode="&#x660;" horiz-adv-x="442" 
d="M307 395l-172 -43v-198l172 43v198z" />
    <glyph glyph-name="one" unicode="1" horiz-adv-x="442" 
d="M135 1282l31 -203v-1079l125 98v981l16 244z" />
    <glyph glyph-name="one" unicode="&#x6f1;" horiz-adv-x="442" 
d="M135 1282l31 -203v-1079l125 98v981l16 244z" />
    <glyph glyph-name="one" unicode="&#x661;" horiz-adv-x="442" 
d="M135 1282l31 -203v-1079l125 98v981l16 244z" />
    <glyph glyph-name="two" unicode="2" horiz-adv-x="771" 
d="M633 858v465l-148 -37l25 -194v-174q0 -134 -113 -134q-59 0 -137 84v455l-125 -37v-1286h123l2 750q73 -76 174 -76q120 0 172 94q29 34 27 90z" />
    <glyph glyph-name="two" unicode="&#x6f2;" horiz-adv-x="771" 
d="M633 858v465l-148 -37l25 -194v-174q0 -134 -113 -134q-59 0 -137 84v455l-125 -37v-1286h123l2 750q73 -76 174 -76q120 0 172 94q29 34 27 90z" />
    <glyph glyph-name="two" unicode="&#x662;" horiz-adv-x="771" 
d="M633 858v465l-148 -37l25 -194v-174q0 -134 -113 -134q-59 0 -137 84v455l-125 -37v-1286h123l2 750q73 -76 174 -76q120 0 172 94q29 34 27 90z" />
    <glyph glyph-name="three" unicode="3" horiz-adv-x="1130" 
d="M995 1323l-149 -37l26 -194v-174q0 -134 -110 -134q-65 0 -129 74v465l-148 -37l25 -194v-174q0 -134 -113 -134q-59 0 -137 84v455l-125 -37v-1286h123l2 750q73 -76 174 -76q120 0 172 94q76 -94 191 -94q198 0 198 217v432z" />
    <glyph glyph-name="three" unicode="&#x6f3;" horiz-adv-x="1130" 
d="M995 1323l-149 -37l26 -194v-174q0 -134 -110 -134q-65 0 -129 74v465l-148 -37l25 -194v-174q0 -134 -113 -134q-59 0 -137 84v455l-125 -37v-1286h123l2 750q73 -76 174 -76q120 0 172 94q76 -94 191 -94q198 0 198 217v432z" />
    <glyph glyph-name="three" unicode="&#x663;" horiz-adv-x="1130" 
d="M995 1323l-149 -37l26 -194v-174q0 -134 -110 -134q-65 0 -129 74v465l-148 -37l25 -194v-174q0 -134 -113 -134q-59 0 -137 84v455l-125 -37v-1286h123l2 750q73 -76 174 -76q120 0 172 94q76 -94 191 -94q198 0 198 217v432z" />
    <glyph glyph-name="four" unicode="4" horiz-adv-x="1182" 
d="M504 745q-101 145 -101 237q9 110 90 191q91 83 234 83h320l-93 -127l-166 27h-55q-196 0 -209 -170q0 -105 73 -177q55 -52 126 -52h248l22 -104h-733v-653h-125v1294l125 36v-585h244z" />
    <glyph glyph-name="four" unicode="&#x6f4;" horiz-adv-x="1182" 
d="M504 745q-101 145 -101 237q9 110 90 191q91 83 234 83h320l-93 -127l-166 27h-55q-196 0 -209 -170q0 -105 73 -177q55 -52 126 -52h248l22 -104h-733v-653h-125v1294l125 36v-585h244z" />
    <glyph glyph-name="four" unicode="&#x664;" horiz-adv-x="1182" 
d="M504 745q-101 145 -101 237q9 110 90 191q91 83 234 83h320l-93 -127l-166 27h-55q-196 0 -209 -170q0 -105 73 -177q55 -52 126 -52h248l22 -104h-733v-653h-125v1294l125 36v-585h244z" />
    <glyph glyph-name="five" unicode="5" horiz-adv-x="946" 
d="M793 1035v-690q0 -349 -333 -349q-155 0 -244 102q-81 94 -81 240q0 506 33 650q27 74 84 132q57 56 136 76q87 34 193 34q134 0 230 -30zM642 1136l-24 4q-12 2 -27 4q-14 0 -27.5 1t-27.5 1q-258 10 -258 -307q0 -595 49 -667q53 -72 131 -72q104 -13 161 56t51.5 165
t-7.5 524q-4 56 -13 172z" />
    <glyph glyph-name="five" unicode="&#x6f5;" horiz-adv-x="946" 
d="M793 1035v-690q0 -349 -333 -349q-155 0 -244 102q-81 94 -81 240q0 506 33 650q27 74 84 132q57 56 136 76q87 34 193 34q134 0 230 -30zM642 1136l-24 4q-12 2 -27 4q-14 0 -27.5 1t-27.5 1q-258 10 -258 -307q0 -595 49 -667q53 -72 131 -72q104 -13 161 56t51.5 165
t-7.5 524q-4 56 -13 172z" />
    <glyph glyph-name="five" unicode="&#x665;" horiz-adv-x="946" 
d="M793 1035v-690q0 -349 -333 -349q-155 0 -244 102q-81 94 -81 240q0 506 33 650q27 74 84 132q57 56 136 76q87 34 193 34q134 0 230 -30zM642 1136l-24 4q-12 2 -27 4q-14 0 -27.5 1t-27.5 1q-258 10 -258 -307q0 -595 49 -667q53 -72 131 -72q104 -13 161 56t51.5 165
t-7.5 524q-4 56 -13 172z" />
    <glyph glyph-name="six" unicode="6" horiz-adv-x="1009" 
d="M874 1323h-739l92 -139l182 26h342v-1210h123v1323z" />
    <glyph glyph-name="six" unicode="&#x6f6;" horiz-adv-x="1009" 
d="M874 1323h-739l92 -139l182 26h342v-1210h123v1323z" />
    <glyph glyph-name="six" unicode="&#x666;" horiz-adv-x="1009" 
d="M874 1323h-739l92 -139l182 26h342v-1210h123v1323z" />
    <glyph glyph-name="seven" unicode="7" horiz-adv-x="1296" 
d="M983 1323l-336 -1233l-283 1045l-53 188h-176l94 -188l240 -838l94 -297h168l96 297l238 838l96 188h-178z" />
    <glyph glyph-name="seven" unicode="&#x6f7;" horiz-adv-x="1296" 
d="M983 1323l-336 -1233l-283 1045l-53 188h-176l94 -188l240 -838l94 -297h168l96 297l238 838l96 188h-178z" />
    <glyph glyph-name="seven" unicode="&#x667;" horiz-adv-x="1296" 
d="M983 1323l-336 -1233l-283 1045l-53 188h-176l94 -188l240 -838l94 -297h168l96 297l238 838l96 188h-178z" />
    <glyph glyph-name="eight" unicode="8" horiz-adv-x="1296" 
d="M1065 188l-238 838l-96 297h-168l-94 -297l-240 -838l-94 -188h176l336 1237l283 -1049l53 -188h178z" />
    <glyph glyph-name="eight" unicode="&#x6f8;" horiz-adv-x="1296" 
d="M1065 188l-238 838l-96 297h-168l-94 -297l-240 -838l-94 -188h176l336 1237l283 -1049l53 -188h178z" />
    <glyph glyph-name="eight" unicode="&#x668;" horiz-adv-x="1296" 
d="M1065 188l-238 838l-96 297h-168l-94 -297l-240 -838l-94 -188h176l336 1237l283 -1049l53 -188h178z" />
    <glyph glyph-name="nine" unicode="9" horiz-adv-x="876" 
d="M516 1323q-169 0 -277 -117q-104 -113 -104 -307q0 -344 268 -344q125 6 213 53v-608h125v1323h-225zM616 696q-89 -32 -164 -32q-194 0 -194 276q0 313 244 313h114v-557z" />
    <glyph glyph-name="nine" unicode="&#x6f9;" horiz-adv-x="876" 
d="M516 1323q-169 0 -277 -117q-104 -113 -104 -307q0 -344 268 -344q125 6 213 53v-608h125v1323h-225zM616 696q-89 -32 -164 -32q-194 0 -194 276q0 313 244 313h114v-557z" />
    <glyph glyph-name="nine" unicode="&#x669;" horiz-adv-x="876" 
d="M516 1323q-169 0 -277 -117q-104 -113 -104 -307q0 -344 268 -344q125 6 213 53v-608h125v1323h-225zM616 696q-89 -32 -164 -32q-194 0 -194 276q0 313 244 313h114v-557z" />
    <glyph glyph-name="colon" unicode=":" horiz-adv-x="432" 
d="M218 639q-106 0 -106 -104q0 -103 106 -103q101 0 101 103q0 104 -101 104zM218 190q-106 0 -106 -106q0 -104 106 -104q101 0 101 104q0 106 -101 106z" />
    <glyph glyph-name="equal" unicode="=" horiz-adv-x="993" 
d="M880 571h-768v-75h768v75zM880 317h-768v-79h768v79z" />
    <glyph glyph-name="bracketleft" unicode="[" horiz-adv-x="434" 
d="M407 -290l-162 30l-18 187v1113l18 189l162 31v47h-295v-1649h295v52z" />
    <glyph glyph-name="bracketright" unicode="]" horiz-adv-x="440" 
d="M327 1307h-291v-47l160 -31l18 -189v-1113l-18 -187l-160 -30v-52h291v1649z" />
    <glyph glyph-name="braceleft" unicode="{" horiz-adv-x="608" 
d="M495 -278l-64 10q-133 19 -133 176v401q0 128 -96 156l-72 16l76 21q92 24 92 149v406q0 160 133 176l64 12v53h-98q-213 0 -213 -270v-364q0 -108 -88 -129l-66 -17v-69l66 -17q88 -21 88 -133v-362q0 -131 65 -203q55 -67 148 -67h98v55z" />
    <glyph glyph-name="braceright" unicode="}" horiz-adv-x="620" 
d="M508 518l-68 17q-88 21 -88 129v364q0 272 -215 272h-94v-55l63 -12q132 -15 132 -176v-402q0 -128 96 -153l69 -21l-75 -18q-90 -25 -90 -146v-407q0 -159 -132 -178l-63 -10v-55h94q215 0 215 270v362q0 112 88 133l68 17v69z" />
    <glyph glyph-name="guillemotleft" unicode="&#xab;" horiz-adv-x="759" 
d="M538 958q-160 -227 -160 -479q0 -240 160 -477h106q-120 263 -120 475q0 214 123 481h-109zM272 958q-160 -227 -160 -479q0 -242 156 -477h110q-121 263 -121 475t121 481h-106z" />
    <glyph glyph-name="guillemotright" unicode="&#xbb;" horiz-adv-x="759" 
d="M487 958h-109q123 -267 123 -481q0 -212 -121 -475h111q156 235 156 477q0 252 -160 479zM221 958h-109q123 -267 123 -481t-123 -475h109q157 238 157 477q0 251 -157 479z" />
    <glyph glyph-name="multiply" unicode="&#xd7;" horiz-adv-x="866" 
d="M481 420l254 254l-54 53l-254 -254l-260 264l-55 -55l262 -264l-252 -252l53 -53l252 252l273 -273l53 58z" />
    <glyph glyph-name="divide" unicode="&#xf7;" horiz-adv-x="1015" 
d="M112 465v-76h791v76h-791zM493 233q-105 0 -105 -106q0 -104 105 -104q106 0 106 104q0 106 -106 106zM493 834q-105 0 -105 -107q0 -104 105 -104q106 0 106 104q0 107 -106 107z" />
    <glyph glyph-name="afii61664" unicode="&#x200c;" horiz-adv-x="40" 
d="M41 1479h-41v-1479h41v1479z" />
    <glyph glyph-name="afii301" unicode="&#x200d;" horiz-adv-x="40" 
d="M50 1456l96 96l-29 29l-96 -98l-96 98l-29 -29l98 -96l-98 -98l29 -27l75 76v-1407h41v1407l76 -76l29 27z" />
    <glyph glyph-name="afii299" unicode="&#x200e;" horiz-adv-x="37" 
d="M245 1305l-108 -111l-28 23l72 72h-144v-1289h-37v1324h176l-67 67l28 25z" />
    <glyph glyph-name="afii300" unicode="&#x200f;" horiz-adv-x="37" 
d="M37 0h-37v1289h-143l69 -72l-23 -23l-114 111l114 111l23 -25l-67 -67h178v-1324z" />
    <glyph glyph-name="quoteleft" unicode="&#x2018;" horiz-adv-x="531" 
d="M393 1110q0 -43 -33.5 -71.5t-76.5 -28.5q-67 0 -107 53q-38 49 -38 117q0 130 110 229q52 47 118 72l14 -37q-157 -93 -157 -205q0 -43 28 -43q8 0 24.5 3t24.5 3q93 0 93 -92z" />
    <glyph glyph-name="quoteright" unicode="&#x2019;" horiz-adv-x="531" 
d="M393 1311q0 -100 -68 -184q-62 -79 -159 -117l-15 37q157 91 157 204q0 43 -27 43q-9 0 -25.5 -3t-24.5 -3q-39 0 -66 26.5t-27 65.5q0 43 33 72t78 29q65 0 106 -54q38 -48 38 -116z" />
    <glyph glyph-name="quotedblleft" unicode="&#x201c;" horiz-adv-x="981" 
d="M841 1110q0 -45 -32.5 -72.5t-78.5 -27.5q-67 0 -107 53q-35 47 -35 117q0 129 109 229q51 47 118 72l14 -37q-157 -92 -157 -205q0 -43 28 -43q7 1 13 2l12 2q12 2 25 2q91 0 91 -92zM377 1110q0 -44 -33.5 -72t-77.5 -28q-68 0 -107 53q-36 47 -36 117q0 129 109 229
q51 47 118 72l14 -37q-157 -92 -157 -205q0 -43 29 -43q8 0 24.5 3t24.5 3q92 0 92 -92z" />
    <glyph glyph-name="quotedblright" unicode="&#x201d;" horiz-adv-x="981" 
d="M857 1311q0 -100 -67 -184q-62 -79 -160 -117l-14 37q158 91 158 204q0 43 -30 43q-8 0 -24.5 -3t-24.5 -3q-37 0 -64 27t-27 65q0 44 32.5 72.5t78.5 28.5q65 0 106 -54q36 -48 36 -116zM393 1311q0 -100 -68 -184q-62 -79 -159 -117l-15 37q157 91 157 204q0 43 -27 43
q-9 0 -25.5 -3t-24.5 -3q-39 0 -66 26.5t-27 65.5q0 43 33 72t78 29q65 0 106 -54q38 -48 38 -116z" />
    <glyph glyph-name="guilsinglleft" unicode="&#x2039;" horiz-adv-x="839" 
d="M251 393l480 479h-142l-479 -479l479 -476h142z" />
    <glyph glyph-name="guilsinglright" unicode="&#x203a;" horiz-adv-x="839" 
d="M587 393l-479 479h141l480 -479l-480 -476h-141z" />
    <glyph glyph-name="afii57388" unicode="&#x60c;" horiz-adv-x="456" 
d="M321 432q-209 -52 -209 -264q0 -168 117 -168q98 0 98 100q0 102 -109 99l-4 34q0 104 129 138z" />
    <glyph glyph-name="afii57403" unicode="&#x61b;" horiz-adv-x="432" 
d="M309 866q-211 -52 -211 -266q0 -168 117 -168q98 0 98 100q0 104 -109 101q-1 8 -1 18l-1 17q0 103 129 137zM215 190q-103 0 -103 -106q0 -104 103 -104q104 0 104 104q0 106 -104 106z" />
    <glyph glyph-name="afii57407" unicode="&#x61f;" horiz-adv-x="851" 
d="M739 1167q-139 160 -328 160q-130 0 -214 -80q-85 -80 -85 -207q0 -190 156 -333q147 -139 147 -340h72q0 222 -135 360q-134 142 -134 270q0 226 246 226q128 0 232 -101zM448 197q-98 0 -98 -99q0 -96 98 -96t98 96q0 99 -98 99z" />
    <glyph glyph-name="afii57440" unicode="&#x640;" horiz-adv-x="212" 
d="M251 100h-279v-100h279v100z" />
    <glyph glyph-name="afii57451" unicode="&#x64b;" horiz-adv-x="3" 
d="M382 1649l-3 -86l-359 1v85h362zM386 1780l2 -87l-368 2v89z" />
    <glyph glyph-name="afii57452" unicode="&#x64c;" 
d="M292 1794q0 -58 47 -58q45 0 45 58q0 54 -45 54q-47 0 -47 -54zM282 1672q-14 3 -42 32q-38 37 -38 87q0 125 133 125q137 0 137 -125q0 -50 -37 -87q-68 -54 -35 -14l-9 -26l-143 -100l-33 61zM108 1794q0 -58 47 -58q45 0 45 58q0 54 -45 54q-47 0 -47 -54zM97 1672
q-12 2 -39 29q-40 40 -40 90q0 125 134 125q137 0 137 -125q0 -50 -38 -88q-71 -53 -35 -14l-7 -23l-144 -102l-33 61z" />
    <glyph glyph-name="afii57453" unicode="&#x64d;" 
d="M376 -574l2 -79l-364 -2v81h362zM376 -450l2 -82l-364 -2v84h362z" />
    <glyph glyph-name="afii57454" unicode="&#x64e;" horiz-adv-x="397" 
d="M365 1694l2 -82l-364 -3v85h362z" />
    <glyph glyph-name="afii57455" unicode="&#x64f;" 
d="M116 1795q0 -57 47 -57q45 0 45 57q0 53 -45 53q-47 0 -47 -53zM103 1672q-5 0 -39 36q-38 35 -38 85q0 124 134 124q137 0 137 -124q0 -50 -37 -85q-5 -16 -16 -22l-172 -121l-32 60z" />
    <glyph glyph-name="afii57456" unicode="&#x650;" 
d="M448 -780l2 -84h-364v84h362z" />
    <glyph glyph-name="afii57457" unicode="&#x651;" 
d="M430 1800v-88q0 -43 -25 -74q-33 -38 -93 -38q-64 2 -79 32q-14 -26 -84 -26q-62 -6 -94 35q-25 31 -25 71v88h98v-71q6 -46 32 -45q19 2 19 73v43h99v-44q8 -72 38 -72q22 0 15 47l2 69h97z" />
    <glyph glyph-name="afii57458" unicode="&#x652;" 
d="M294 1749q2 -129 -124 -132q-130 0 -133 128q-3 131 123 134q64 3 104 -44q30 -39 30 -86zM200 1749q0 59 -34 59q-32 0 -32 -61q3 -59 35 -59q31 0 31 61z" />
    <glyph glyph-name="uniE820" unicode="&#xe820;" horiz-adv-x="443" 
d="M408 1413l2 -81l-364 -4v85h362z" />
    <glyph glyph-name="uniE821" unicode="&#xe821;" 
d="M116 1492q0 -56 47 -56q45 0 45 56q0 54 -45 54q-47 0 -47 -54zM103 1369q-5 1 -39 35q-38 36 -38 86q0 125 134 125q137 0 137 -125q0 -50 -38 -86q-68 -73 -187 -141l-32 60z" />
    <glyph glyph-name="uniE822" unicode="&#xe822;" 
d="M294 1420q2 -128 -124 -132q-130 0 -133 128q-3 131 123 134q64 3 104 -44q30 -39 30 -86zM200 1420q0 59 -34 59q-32 0 -32 -61q3 -58 35 -58q31 0 31 60z" />
    <glyph glyph-name="uniE823" unicode="&#xe823;" horiz-adv-x="3" 
d="M382 1376l-3 -86l-359 2v84h362zM386 1499l2 -87l-368 2v89z" />
    <glyph glyph-name="uniE824" unicode="&#xe824;" 
d="M212 1391q-12 1 -39 29q-40 40 -40 91q0 125 134 125q137 0 137 -125q0 -51 -37 -88q-71 -49 -37 -13l-16 -32l-134 -95l-33 61zM270 1567q-47 0 -47 -55q0 -56 47 -56q45 0 45 56q0 55 -45 55zM395 1391q-12 1 -40 32q-38 37 -38 88q0 125 133 125q137 0 137 -125
q0 -51 -39 -90q-65 -49 -34 -11l-15 -31l-136 -97l-33 62zM454 1567q-47 0 -47 -55q0 -56 47 -56q45 0 45 56q0 55 -45 55z" />
    <glyph glyph-name="uniE825" unicode="&#xe825;" horiz-adv-x="1" 
d="M422 1476v-88q0 -41 -25 -72q-32 -40 -94 -40q-63 4 -78 32q-13 -27 -85 -27q-61 -2 -93 37q-25 30 -25 70v88h98v-71q6 -47 32 -45q19 2 19 74v42h99v-42q8 -74 38 -74q22 0 15 48l2 68h97z" />
    <glyph glyph-name="uniE826" unicode="&#xe826;" horiz-adv-x="384" 
d="M380 -30l2 -87l-368 2v89z" />
    <glyph glyph-name="uniE827" unicode="&#xe827;" 
d="M376 -357l2 -78l-364 -3v81h362zM376 -249l2 -82l-364 -3v85h362z" />
    <glyph glyph-name="uniE828" unicode="&#xe828;" 
d="M494 1610v-88q0 -42 -25 -73q-32 -41 -94 -41q-63 5 -78 34q-14 -26 -84 -26q-62 -5 -94 36q-25 30 -25 70v88h98v-71q6 -46 32 -44q19 1 19 72v43h99v-42q8 -73 38 -73q22 0 15 45l2 70h97zM479 1742l2 -76h-365l3 76h360z" />
    <glyph glyph-name="uniE829" unicode="&#xe829;" 
d="M494 1539v-89q0 -42 -25 -73q-32 -40 -94 -40q-63 4 -78 34q-14 -27 -84 -27q-62 -5 -94 36q-25 31 -25 70v89h98v-71q6 -47 32 -44q19 0 19 71v44h99v-43q8 -72 38 -72q22 0 15 45l2 70h97zM297 1795q0 -57 47 -57t47 57q0 53 -47 53t-47 -53zM285 1672q-6 1 -40 36
q-37 36 -37 85q0 125 133 125q137 0 137 -125q0 -49 -51.5 -103t-173.5 -123l-31 59z" />
    <glyph glyph-name="uniE82A" unicode="&#xe82a;" horiz-adv-x="1" 
d="M383 1712l-2 -87l-360 2v85h362zM386 1834l3 -86l-368 1v89zM388 1570v-89q0 -42 -25 -73q-32 -40 -94 -40q-63 4 -78 34q-14 -26 -84 -26q-62 -6 -94 35q-25 30 -25 70v89h98v-71q6 -47 32 -44q19 1 19 71v44h99v-43q8 -72 38 -72q22 0 15 45l2 70h97z" />
    <glyph glyph-name="uniE82B" unicode="&#xe82b;" 
d="M499 1574v-88q0 -42 -24 -73q-33 -41 -95 -41q-63 5 -78 34q-14 -26 -84 -26q-62 -5 -94 36q-24 30 -24 70v88h96v-71q7 -46 34 -44q18 1 18 72v43h100v-42q7 -73 37 -73q22 0 15 45l2 70h97zM161 1709q-12 2 -39 29q-40 40 -40 91q0 125 134 125q137 0 137 -125
q0 -51 -37 -88q-71 -49 -37 -13l-16 -32l-134 -95l-33 62zM219 1885q-47 0 -47 -54q0 -56 47 -56q45 0 45 56q0 54 -45 54zM344 1709q-12 2 -40 32q-38 37 -38 88q0 125 133 125q137 0 137 -125q0 -51 -39 -89q-65 -49 -34 -12l-15 -31l-136 -97l-33 63zM403 1885
q-47 0 -47 -54q0 -56 47 -56q45 0 45 56q0 54 -45 54z" />
    <glyph glyph-name="uniE82C" unicode="&#xe82c;" 
d="M494 1724v-88q0 -42 -25 -72q-32 -41 -94 -41q-63 5 -78 33q-14 -26 -84 -26q-62 -5 -94 36q-25 30 -25 70v88h98v-71q6 -45 32 -44q19 2 19 72v43h99v-42q8 -73 38 -73q22 0 15 46l2 69h97zM479 1494l2 -77h-365l3 77h360z" />
    <glyph glyph-name="uniE82D" unicode="&#xe82d;" horiz-adv-x="2" 
d="M380 1907v-87q0 -43 -25 -73q-32 -41 -94 -41q-63 4 -78 34q-14 -27 -84 -27q-62 -5 -94 35q-25 32 -25 72v87h98v-71q6 -45 32 -44q19 1 19 72v43h99v-42q8 -73 38 -73q22 0 15 46l2 69h97zM342 1538l-3 -87l-356 1v86h359zM346 1652l3 -87l-366 2v90z" />
    <glyph glyph-name="afii57409" unicode="&#x621;" horiz-adv-x="1134" 
d="M919 117l-137 -17h-355v93q0 378 308 378q104 0 192 -63l35 41q-137 119 -295 119q-362 0 -362 -447v-121h-193v-100h938z" />
    <glyph glyph-name="periodcentered" unicode="&#xb7;" horiz-adv-x="440" 
d="M335 749q-41 -41 -100 -41q-57 0 -101 41q-39 43 -39 95q0 56 38 95q41 42 100 42t102 -40q41 -39 41 -97q0 -56 -41 -95z" />
    <glyph glyph-name="periodcentered" unicode="&#x2219;" horiz-adv-x="440" 
d="M335 749q-41 -41 -100 -41q-57 0 -101 41q-39 43 -39 95q0 56 38 95q41 42 100 42t102 -40q41 -39 41 -97q0 -56 -41 -95z" />
    <glyph glyph-name="periodcentered" unicode="&#x2d9;" horiz-adv-x="440" 
d="M335 749q-41 -41 -100 -41q-57 0 -101 41q-39 43 -39 95q0 56 38 95q41 42 100 42t102 -40q41 -39 41 -97q0 -56 -41 -95z" />
    <glyph glyph-name="uniFD3E" unicode="&#xfd3e;" horiz-adv-x="759" 
d="M671 252q-47 -54 -60 -91q-8 -22 -7 -63q3 -24 23 -206l-203 250q-108 134 -150 306q-87 0 -191 -18q89 66 151 130q20 22 34 43q-17 13 -26 26q-26 -18 -43 -34q-62 -59 -130 -151q19 108 19 198v123q0 91 -19 198q68 -91 130 -151q17 -16 43 -34q12 15 27 27
q-16 23 -35 43q-62 64 -151 130q108 -19 191 -19q42 173 150 306l203 251q-12 -91 -23 -206q-1 -42 7 -63q13 -37 60 -92q-106 0 -149 -31q-55 -37 -101 -165q74 0 181 19q-91 -68 -151 -130q-19 -21 -35 -43q15 -12 27 -27q28 20 44 34q60 57 130 151q-18 -103 -18 -198
v-123q0 -94 18 -198q-68 92 -130 151q-19 17 -44 34q-11 -15 -27 -26q16 -22 35 -43q60 -62 151 -130q-103 18 -181 18q46 -128 101 -165q43 -31 149 -31zM434 704q0 37 -27 64t-64 27t-64.5 -27t-27.5 -64t27 -64t65 -27q37 0 64 27t27 64z" />
  </font>
</defs>
</svg>
